General Education 2012 BRRIP Xvid AC3-BHRG

Discussion in '2012 Movies' started by RMTeam, Oct 12, 2012.

  1. RMTeam

    RMTeam Active Member

    Feb 18, 2012
    Likes Received:
    Trophy Points:
    General Education 2012 BRRIP Xvid AC3-BHRG


    General Education (2012)
    Genre: Comedy
    Directed By: Tom Morris
    Cast: Chris Sheffield, Maiara Walsh, Sam Ayers
    Country: USA
    Original Language: English
    Storyline: Levi Collins is set to go to the local University on a tennis scholarship, but he forgot to tell his parents one thing - he didn't graduate...



    File size: 1.40 GiB
    Duration: 1h 24mn
    Overall bit rate: 2 373 Kbps

    ID: 0
    Format: MPEG-4 Visual
    Format profile: Advanced Simple@L5
    Format settings, BVOP: 2
    Format settings, QPel: No
    Format settings, GMC: No warppoints
    Format settings, Matrix: Default (H.263)
    Codec ID: XVID
    Codec ID/Hint: XviD
    Duration: 1h 24mn
    Bit rate: 1 917 Kbps
    Width: 720 pixels
    Height: 304 pixels
    Display aspect ratio: 2.35:1
    Frame rate: 23.976 fps
    Color space: YUV
    Chroma subsampling: 4:2:0
    Bit depth: 8 bits
    Scan type: Progressive
    Compression mode: Lossy
    Bits/(Pixel*Frame): 0.365
    Stream size: 1.13 GiB (81%)
    Writing library: XviD 1.2.1 (UTC 2008-12-04)

    ID: 1
    Format: AC-3
    Format/Info: Audio Coding 3
    Mode extension: CM (complete main)
    Format settings, Endianness: Big
    Codec ID: 2000
    Duration: 1h 24mn
    Bit rate mode: Constant
    Bit rate: 448 Kbps
    Channel(s): 6 channels
    Channel positions: Front: L C R, Side: L R, LFE
    Sampling rate: 48.0 KHz
    Bit depth: 16 bits
    Compression mode: Lossy
    Stream size: 270 MiB (19%)
    Alignment: Aligned on interleaves
    Interleave, duration: 64 ms (1.53 video frames)
    Interleave, preload duration: 192 ms
    Title: kaka-ge-1080p -, 1 English




Share This Page