Giallo 2009 DVDRip KiSSJouR (ReQ)

Discussion in 'Archive' started by lacaporta, Aug 9, 2009.

  1. lacaporta

    lacaporta Guest

    [​IMG]


    Code:
    Giallo 2009 DVDRip KiSSJouR (ReQ)
    
    
    
    
    
    
    http://www.imdb.com/title/tt1107816/
    
    
    
    
    
    Overview
    User Rating:
    7.3/10   56 votes
    MOVIEmeter: ?
    Down 7% in popularity this week. See why on IMDbPro.
    Director:
    Dario Argento
    Writers:
    Jim Agnew (writer)
    Dario Argento (writer)
    more
    Contact:
    View company contact information for Giallo on IMDbPro.
    Genre:
    Comedy | Crime | Horror | Thriller more
    Plot:
    In Italy, a woman fears her sister may have been kidnapped. Inspector Enzo Avolfi fears it's worse. They team up to rescue her from a sadistic killer known only as Yellow.
    
    
    
    
    
    Cast
      (Credited cast)
    
     Adrien Brody ...  Inspector Enzo Avolfi
     Emmanuelle Seigner ...  Linda
    
     Elsa Pataky ...  Celine
    
     Robert Miano ...  Inspector Mori
    
     Lorenzo Pedrotti ...  Delivery Boy
    
     Silvia Spross ...  Russian Victim
     Byron Deidra ...  Yellow
     Daniela Fazzolari ...  Sophia
     Luis Molteni ...  Sal
     Valentina Izumi ...  Keiko
     Giuseppe Lo Console ...  Butcher
     Barbara Mautino ...  Nurse
     Taiyo Yamanouchi ...  Toshi
     Maryann McIver ...  Girl In Bookstore
     Anna Varello ...  Butcher's Wife
     Giancarlo Judica Cordiglia ...  Desk Sergeant
     Linda Messerlinker ...  Girl Victim
     Farhad Re ...  Designer
     Massimo Franceschi ...  Coroner
     Patrick Oldani ...  Officer Gian Luca
     Andrea Redavid ...  Officer #1
     Nicol? Morselli ...  Young Enzo
     Liam Riccardo ...  Baby Yellow
    
    
    
    Additional Details
    Parents Guide:
    Add content advisory for parents
    Runtime:
    92 min
    Country:
    USA | Italy
    Language:
    English
    Color:
    Color
    Sound Mix:
    Dolby Digital
    Filming Locations:
    Turin, Piedmont, Italy
    Company:
    Opera Film Produzione 
    
    
    
    General
    Complete name                    : I:\torrents\Giallo 2009 DVDRip KiSSJouR (ReQ)\Giallo 2009 DVDRip KiSSJouR (ReQ).avi
    Format                           : AVI
    Format/Info                      : Audio Video Interleave
    File size                        : 700 MiB
    Duration                         : 1h 28mn
    Overall bit rate                 : 1 105 Kbps
    Writing application              : VirtualDubMod 1.5.10.2 (build 2542/release)
    Writing library                  : VirtualDubMod build 2542/release
    
    Video
    Format                           : MPEG-4 Visual
    Format profile                   : Streaming Video@L1
    Format settings, BVOP            : Yes
    Format settings, QPel            : No
    Format settings, GMC             : No warppoints
    Format settings, Matrix          : Default (H.263)
    Codec ID                         : XVID
    Codec ID/Hint                    : XviD
    Duration                         : 1h 28mn
    Bit rate                         : 966 Kbps
    Width                            : 640 pixels
    Height                           : 352 pixels
    Display aspect ratio             : 16/9
    Frame rate                       : 25.000 fps
    Resolution                       : 24 bits
    Colorimetry                      : 4:2:0
    Scan type                        : Progressive
    Bits/(Pixel*Frame)               : 0.171
    Stream size                      : 611 MiB (87%)
    Writing library                  : XviD 1.1.2 (UTC 2006-11-01)
    
    Audio
    Format                           : MPEG Audio
    Format version                   : Version 1
    Format profile                   : Layer 3
    Codec ID                         : 55
    Codec ID/Hint                    : MP3
    Duration                         : 1h 28mn
    Bit rate mode                    : Constant
    Bit rate                         : 32.0 Kbps
    Channel(s)                       : 2 channels
    Sampling rate                    : 48.0 KHz
    Resolution                       : 16 bits
    Stream size                      : 80.2 MiB (11%)
    Alignment                        : Aligned on interleaves
    Interleave, duration             : 24 ms (0.60 video frame)
    Interleave, preload duration     : 504 ms
    

    [​IMG]


    Code:
    http://rapidshare.com/files/265367085/Giallo_2009_DVDRip_KiSSJouR__ReQ_.part1.rar
    http://rapidshare.com/files/265367379/Giallo_2009_DVDRip_KiSSJouR__ReQ_.part2.rar
    http://rapidshare.com/files/265367679/Giallo_2009_DVDRip_KiSSJouR__ReQ_.part3.rar
    http://rapidshare.com/files/265367851/Giallo_2009_DVDRip_KiSSJouR__ReQ_.part4.rar
    
    
     
  2. suffocater

    suffocater Guest

    is this in english?
     
  3. wpksortzfe

    wpksortzfe Guest

    Thanks for sharing
     
  4. baled

    baled Guest

    This version is polish lectured .. anyone got the original english source?
     
  5. kashif314

    kashif314 Guest

    Anyone downloaded it yet? Is the Audio English?
     
  6. kashif314

    kashif314 Guest

    I was waiting for this movie from a long time, can anybody who has downloaded please confirm that the Audio is English or not?

    Thanks.
     
  7. StargySog

    StargySog New Member

    Joined:
    Feb 26, 2012
    Messages:
    0
    Likes Received:
    0
    Trophy Points:
    0
    Occupation:
    Czech Republic
    Location:
    Czech Republic
    Home Page:
    its the same polish dub version....still waiting for the english version
     
  8. galeman

    galeman Guest

    This Rapidshare file is offline and abused... :scenic:
     
  9. drew8656

    drew8656 New Member

    Joined:
    Feb 19, 2012
    Messages:
    1
    Likes Received:
    1
    Trophy Points:
    3
    Thanks for sharing, but the links are dead.
     
  10. bradlitz14

    bradlitz14 New Member

    Joined:
    Nov 21, 2013
    Messages:
    0
    Likes Received:
    0
    Trophy Points:
    0
    been trying to get the english version...beware most places they say it's in english but it's dubbed over in polish... awful. do not download unless you can speak polish
     

Share This Page