Goon 2011 vodrip-pa

Discussion in '2011 Movies' started by RMTeam, Feb 25, 2012.

  1. RMTeam

    RMTeam Active Member

    Joined:
    Feb 18, 2012
    Messages:
    4,485
    Likes Received:
    2
    Trophy Points:
    38
    Goon (2011) DVDRip XviD - BBnRG Single 1 Link Full Avi

    [​IMG]

    General Information
    Complete name : Goon (2011) DVDRip XviD BBnRG.avi
    Format : AVI
    Format/Info : Audio Video Interleave
    File size : 1.24 GiB
    Duration : 1h 31mn
    Overall bit rate : 1 941 Kbps

    Video
    ID : 0
    Format : MPEG-4 Visual
    Format profile : Advanced Simple@L5
    Format settings, BVOP : 2
    Format settings, QPel : No
    Format settings, GMC : No warppoints
    Format settings, Matrix : Default (H.263)
    Codec ID : XVID
    Codec ID/Hint : XviD
    Duration : 1h 31mn
    Bit rate : 1 549 Kbps
    Width : 720 pixels
    Height : 400 pixels
    Display aspect ratio : 16:9
    Frame rate : 25.000 fps
    Color space : YUV
    Chroma subsampling : 4:2:0
    Bit depth : 8 bits
    Scan type : Progressive
    Compression mode : Lossy
    Bits/(Pixel*Frame) : 0.215
    Stream size : 1 016 MiB (80%)
    Writing library : XviD 1.2.1 (UTC 2008-12-04)

    Audio
    ID : 1
    Format : AC-3
    Format/Info : Audio Coding 3
    Mode extension : CM (complete main)
    Codec ID : 2000
    Duration : 1h 31mn
    Bit rate mode : Constant
    Bit rate : 384 Kbps
    Channel(s) : 6 channels
    Channel positions : Front: L C R, Side: L R, LFE
    Sampling rate : 48.0 KHz
    Bit depth : 16 bits
    Compression mode : Lossy
    Stream size : 252 MiB (20%)
    Alignment : Aligned on interleaves
    Interleave, duration : 64 ms (1.60 video frames)
    Interleave, preload duration : 192 ms
    Title : Goon (2012) BBnRG

    Notes
    Encoder: FridayToker
    Source(s): DVDR Legend-Rg (thanks)

    Another fine release from BBnRG

    Summary
    92 min - Comedy | Sport - 6 January 2012 (UK)

    Labeled an outcast by his brainy family, a bouncer overcomes long odds to lead a team of under performing misfits to semi-pro hockey glory, beating the crap out of everything that stands in his way.

    DOWNLOAD DIRECT LINK
    Code:
    http://extabit.com/file/28xl35qp3gucm/Goon.2011.DVDRip.XviD-BBnRG.avi
    
    [​IMG]

    [​IMG]

    [​IMG]
     

Share This Page