Gossip Girl Season 3 720p x264 (Weekly Update)

Discussion in 'Archive' started by 0028606, Sep 15, 2009.

  1. 0028606

    0028606 Guest

    [​IMG]

    Plot
    Privileged teenagers attend an elite private school in New York City. Based on Alloy Entertainment's book series.

    IMDB
    Code:
    http://www.imdb.com/title/tt0397442/

    Video/Audio Specs
    Code:
    [B]S03E01[/B] - Gossip.Girl.S03E01.720p.HDTV.x264-CTU
    
    Total File Size - 1.09gb
    Video
    ID                               : 2
    Format                           : AVC
    Format/Info                      : Advanced Video Codec
    Format profile                   : High@L3.1
    Format settings, CABAC           : Yes
    Format settings, ReFrames        : 3 frames
    Muxing mode                      : Container profile=Unknown@3.1
    Codec ID                         : V_MPEG4/ISO/AVC
    Duration                         : 41mn 29s
    Bit rate                         : 276 Kbps
    Nominal bit rate                 : 3 380 Kbps
    Width                            : 1 280 pixels
    Height                           : 720 pixels
    Display aspect ratio             : 16:9
    Frame rate                       : 23.976 fps
    Resolution                       : 24 bits
    Colorimetry                      : 4:2:0
    Scan type                        : Progressive
    Bits/(Pixel*Frame)               : 0.012
    Stream size                      : 81.8 MiB (41%)
    Writing library                  : x264 core 68 r1184tw
    Encoding settings                : cabac=1 / ref=3 / deblock=1:0:0 
    / analyse=0x3:0x133 / me=hex / subme=6 / psy_rd=1.0:0.0 
    / mixed_ref=1 / me_range=16 / chroma_me=1 / trellis=1 
    / 8x8dct=1 / cqm=0 / deadzone=21,11 / chroma_qp_offset=-2 
    / threads=6 / nr=0 / decimate=1 / mbaff=0 / bframes=3 
    / b_pyramid=1 / b_adapt=2 / b_bias=0 / direct=3 / wpredb=1 
    / keyint=240 / keyint_min=24 / scenecut=40 / rc=2pass 
    / bitrate=3380 / ratetol=1.0 / qcomp=0.60 / qpmin=10 
    / qpmax=51 / qpstep=4 / cplxblur=20.0 / qblur=0.5 
    / ip_ratio=1.40 / pb_ratio=1.30 / aq=1:1.00
    Language                         : English
    
    Audio
    ID                               : 1
    Format                           : AC-3
    Format/Info                      : Audio Coding 3
    Codec ID                         : A_AC3
    Duration                         : 41mn 32s
    Bit rate mode                    : Constant
    Bit rate                         : 384 Kbps
    Channel(s)                       : 6 channels
    Channel positions                : Front: L C R, Surround: L R, LFE
    Sampling rate                    : 48.0 KHz
    Stream size                      : 114 MiB (57%)
    
    [B]Gossip.Girl.S03E02.720p.HDTV.x264-CTU[/B]
    
    Video
    ID                               : 2
    Format                           : AVC
    Format/Info                      : Advanced Video Codec
    Format profile                   : High@L3.1
    Format settings, CABAC           : Yes
    Format settings, ReFrames        : 3 frames
    Muxing mode                      : Container profile=Unknown@3.1
    Codec ID                         : V_MPEG4/ISO/AVC
    Duration                         : 41mn 37s
    Bit rate                         : 3 296 Kbps
    Nominal bit rate                 : 3 368 Kbps
    Width                            : 1 280 pixels
    Height                           : 720 pixels
    Display aspect ratio             : 16:9
    Frame rate                       : 23.976 fps
    Resolution                       : 24 bits
    Colorimetry                      : 4:2:0
    Scan type                        : Progressive
    Bits/(Pixel*Frame)               : 0.149
    Stream size                      : 981 MiB (88%)
    Writing library                  : x264 core 68 r1184tw
    Encoding settings                : cabac=1 / ref=3 / deblock=1:0:0 
    / analyse=0x3:0x133 / me=hex / subme=6 / psy_rd=1.0:0.0 
    / mixed_ref=1 / me_range=16 / chroma_me=1 / trellis=1 
    / 8x8dct=1 / cqm=0 / deadzone=21,11 / chroma_qp_offset=-2 
    / threads=6 / nr=0 / decimate=1 / mbaff=0 / bframes=3 
    / b_pyramid=1 / b_adapt=2 / b_bias=0 / direct=3 / wpredb=1 
    / keyint=240 / keyint_min=24 / scenecut=40 / rc=2pass 
    / bitrate=3368 / ratetol=1.0 / qcomp=0.60 / qpmin=10 
    / qpmax=51 / qpstep=4 / cplxblur=20.0 / qblur=0.5 
    / ip_ratio=1.40 / pb_ratio=1.30 / aq=1:1.00
    Language                         : English
    
    Audio
    ID                               : 1
    Format                           : AC-3
    Format/Info                      : Audio Coding 3
    Codec ID                         : A_AC3
    Duration                         : 41mn 39s
    Bit rate mode                    : Constant
    Bit rate                         : 384 Kbps
    Channel(s)                       : 6 channels
    Channel positions                : Front: L C R, Surround: L R, LFE
    Sampling rate                    : 48.0 KHz
    Stream size                      : 114 MiB (10%

    Sample
    Code:
    http://rapidshare.com/files/280322679/Gossip.Girl.S03E01.720p.HDTV.x264-CTU-Sample.mkv


    Rapidshare
    Code:
    [B]Episode's[/B]
    
    [B]1. Reversals of Fortune[/B] - 
    http://rapidshare.com/files/284373457/GossE01.dlc
    
    
    
    
    [B]2. The Freshman[/B] -
    http://rapidshare.com/files/283293895/GossipS03E02.dlc
    
    OR alternate direct links
    
    http://rapidshare.com/files/283289490/Gossip.Girl.S03E02.720p.HDTV.x264-CTU.part1.rar
    http://rapidshare.com/files/283289286/Gossip.Girl.S03E02.720p.HDTV.x264-CTU.part2.rar
    http://rapidshare.com/files/283289547/Gossip.Girl.S03E02.720p.HDTV.x264-CTU.part3.rar
    http://rapidshare.com/files/283289445/Gossip.Girl.S03E02.720p.HDTV.x264-CTU.part4.rar
    http://rapidshare.com/files/283289882/Gossip.Girl.S03E02.720p.HDTV.x264-CTU.part5.rar
    http://rapidshare.com/files/283289087/Gossip.Girl.S03E02.720p.HDTV.x264-CTU.part6.rar
    
    
    
    
    [B]3. The Lost Boy[/B] -
    
    http://rapidshare.com/files/286519139/ctu-x264-gossip.girl.303.part1.rar
    http://rapidshare.com/files/286519261/ctu-x264-gossip.girl.303.part2.rar
    http://rapidshare.com/files/286519379/ctu-x264-gossip.girl.303.part3.rar
    http://rapidshare.com/files/286522166/ctu-x264-gossip.girl.303.part4.rar
    http://rapidshare.com/files/286519395/ctu-x264-gossip.girl.303.part5.rar
    http://rapidshare.com/files/286518419/ctu-x264-gossip.girl.303.part6.rar
    
    
    Pass: areg | 
    
    
    [B]4. Dan de Fleurette[/B] -
    
    http://rapidshare.com/files/289248069/Gossip.Girl.S03E04.720p.HDTV.x264-X264.part1.rar
    http://rapidshare.com/files/289246413/Gossip.Girl.S03E04.720p.HDTV.x264-X264.part2.rar
    http://rapidshare.com/files/289246855/Gossip.Girl.S03E04.720p.HDTV.x264-X264.part3.rar
    http://rapidshare.com/files/289246753/Gossip.Girl.S03E04.720p.HDTV.x264-X264.part4.rar
    http://rapidshare.com/files/289246573/Gossip.Girl.S03E04.720p.HDTV.x264-X264.part5.rar
    http://rapidshare.com/files/289246543/Gossip.Girl.S03E04.720p.HDTV.x264-X264.part6.rar
    
    No Pass |
    
    [B]5. Rufus Getting Married[/B] -
    
    http://rapidshare.com/files/292482255/gossip.girl.s03e05.720p.hdtv.x264-x264.part1.rar
    http://rapidshare.com/files/292482621/gossip.girl.s03e05.720p.hdtv.x264-x264.part2.rar
    http://rapidshare.com/files/292482208/gossip.girl.s03e05.720p.hdtv.x264-x264.part3.rar
    http://rapidshare.com/files/292483732/gossip.girl.s03e05.720p.hdtv.x264-x264.part4.rar
    http://rapidshare.com/files/292483827/gossip.girl.s03e05.720p.hdtv.x264-x264.part5.rar
    http://rapidshare.com/files/292481696/gossip.girl.s03e05.720p.hdtv.x264-x264.part6.rar
    
    No Pass |
    
    [B]6. Enough About Eve[/B] -
    October 19, 2009	
    
    [B]7. How To Succeed In Bassness[/B] -
    October 26, 2009	
    
    [B]8. The Grandfather: Part II[/B] -
    November 2, 2009	
    
    [B]9. Men in White[/B] -
    November 9, 2009	
    
    





    Links are encrypted, to download please use Jdownloader or CryptLoad

    Jdownloader/Cryptload
    Code:
    http://jdownloader.org/download/index
    
    http://cryptload.info/download/



    PLEASE SAY THANK YOU IF YOU FIND THIS POST USEFUL.
     
  2. 0028606

    0028606 Guest

    Direct links Added also
     
  3. SOLLY_NASR

    SOLLY_NASR Guest

    thank you
     
  4. 0028606

    0028606 Guest

    No problem Enjoy it
     
  5. 0028606

    0028606 Guest

    Ep 2 added
     
  6. qocboi

    qocboi Guest

    Ep 1 is dead plz reupload!!!!
     
  7. 0028606

    0028606 Guest

    Use the encrypted links they are still working.

    The tutorial below will help you with the .dlc container
     
  8. 0028606

    0028606 Guest

    EP 3 added
     
  9. qocboi

    qocboi Guest

    thanks for the reup!!!
     
  10. 0028606

    0028606 Guest

    Ep 4 added
     
  11. 0028606

    0028606 Guest

    Ep 5 Added -

    Code:
    [B]5. Rufus Getting Married[/B] -
    
    http://rapidshare.com/files/292482255/gossip.girl.s03e05.720p.hdtv.x264-x264.part1.rar
    http://rapidshare.com/files/292482621/gossip.girl.s03e05.720p.hdtv.x264-x264.part2.rar
    http://rapidshare.com/files/292482208/gossip.girl.s03e05.720p.hdtv.x264-x264.part3.rar
    http://rapidshare.com/files/292483732/gossip.girl.s03e05.720p.hdtv.x264-x264.part4.rar
    http://rapidshare.com/files/292483827/gossip.girl.s03e05.720p.hdtv.x264-x264.part5.rar
    http://rapidshare.com/files/292481696/gossip.girl.s03e05.720p.hdtv.x264-x264.part6.rar
    
    No Pass |
     
  12. ryumahon

    ryumahon Guest

    can somebody please reupload episode 4 and 5 rapidshare links please???


    thanks alot!
     

Share This Page