Grimm's Snow White (2012) DVDRip x264 AC3-BBnRG

Discussion in '2012 Movies' started by RMTeam, Mar 11, 2012.

  1. RMTeam

    RMTeam Active Member

    Joined:
    Feb 18, 2012
    Messages:
    4,485
    Likes Received:
    2
    Trophy Points:
    38
    Grimm's Snow White (2012) DVDRip x264 AC3-BBnRG

    [​IMG]

    Grimm's Snow White (2012)
    Genre: Fantasy
    Directed By: Rachel Goldenberg
    Cast: Eliza Bennett, Jane March, Jamie Thomas King

    Code:
    IMDB: http://www.imdb.com/title/tt2081255/
    Format : Matroska
    Format version : Version 2
    File size : 575 MiB
    Duration : 1h 28mn
    Overall bit rate : 905 Kbps

    Video
    ID : 1
    Format : AVC
    Format/Info : Advanced Video Codec
    Format profile : High@L3.0
    Format settings, CABAC : Yes
    Format settings, ReFrames : 4 frames
    Codec ID : V_MPEG4/ISO/AVC
    Duration : 1h 28mn
    Bit rate : 772 Kbps
    Width : 676 pixels
    Height : 384 pixels
    Display aspect ratio : 16:9
    Frame rate mode : Variable
    Frame rate : 29.970 fps
    Color space : YUV
    Chroma subsampling : 4:2:0
    Bit depth : 8 bits
    Scan type : Progressive
    Bits/(Pixel*Frame) : 0.099
    Stream size : 483 MiB (84%)
    Writing library : x264 core 112

    Audio
    ID : 2
    Format : AC-3
    Format/Info : Audio Coding 3
    Mode extension : CM (complete main)
    Codec ID : A_AC3
    Duration : 1h 28mn
    Bit rate mode : Constant
    Bit rate : 128 Kbps
    Channel(s) : 2 channels
    Channel positions : Front: L R
    Sampling rate : 48.0 KHz
    Bit depth : 16 bits
    Compression mode : Lossy
    Stream size : 81.3 MiB (14%)


    DOWNLOAD
    Code:
    http://www.rarefile.net/vtxiyycrlfq8/g.s.w.2012.d.x264.a3-b.u24516.RMTeam.rar
    [​IMG]

    [​IMG]

    [​IMG]
     

Share This Page