I Am Virgin (2010) DVDRip XviD-SPRiNTER (+18)

Discussion in 'Archive' started by drmahelgazzar, Apr 15, 2010.

  1. drmahelgazzar

    drmahelgazzar New Member

    Joined:
    Jul 12, 2012
    Messages:
    0
    Likes Received:
    0
    Trophy Points:
    0

    [​IMG]

    NFO::

    Code:
    .Am.Virgin.2010.DVDRip.XviD-SPRiNTER
    http://www.imdb.com/title/tt1568927/
    Subtitles: N/A
    Date: 2010.04
    
    Release notes
    
    FINISHED 100.00% FILM
    Enjoy!
    
    Details
    
    Format: AVI
    Format/Info: Audio Video Interleave
    File size: 698 MiB
    Duration: 1h 34mn
    Overall bit rate: 1 032 Kbps
    Writing application: VirtualDubMod 1.5.10.2 (build 2540/release)
    Writing library: VirtualDubMod build 2540/release
    
    Video
    ID: 0
    Format: MPEG-4 Visual
    Format profile: Advanced Simple@L5
    Format settings, BVOP: Yes
    Format settings, QPel: No
    Format settings, GMC: No warppoints
    Format settings, Matrix: Default (H.263)
    Muxing mode: Packed bitstream
    Codec ID: XVID
    Codec ID/Hint: XviD
    Duration: 1h 34mn
    Bit rate: 889 Kbps
    Width: 640 pixels
    Height: 352 pixels
    Display aspect ratio: 16:9
    Frame rate: 23.976 fps
    Resolution: 8 bits
    Colorimetry: 4:2:0
    Scan type: Progressive
    Bits/(Pixel*Frame): 0.165
    Stream size: 601 MiB (86%)
    Writing library: XviD 1.2.1 (UTC 2008-12-04)
    
    Audio
    ID: 1
    Format: MPEG Audio
    Format version: Version 1
    Format profile: Layer 3
    Mode: Joint stereo
    Format_Settings_ModeExtension: MS Stereo
    Codec ID: 55
    Codec ID/Hint: MP3
    Duration: 1h 34mn
    Bit rate mode: Variable
    Bit rate: 130 Kbps
    Nominal bit rate: 128 Kbps
    Channel(s): 2 channels
    Sampling rate: 48.0 KHz
    Stream size: 87.8 MiB (13%)
    Alignment: Aligned on interleaves
    Interleave, duration: 24 ms (0.58 video frame)
    Interleave, preload duration: 141 ms
    Writing library: LAME3.90
    Encoding settings: -m j -V 4 -q 2 -lowpass 17.6 --abr 128
    
    CAPS:
    http://i44.tinypic.com/2q87f2p.jpg

    Code:
    http://rapidshare.com/files/376212549/i.am.vrgn.tiky.part1.rar
    http://rapidshare.com/files/376228189/i.am.vrgn.tiky.part2.rar
    http://rapidshare.com/files/376248852/i.am.vrgn.tiky.part3.rar
    http://rapidshare.com/files/376273330/i.am.vrgn.tiky.part4.rar
    
     
  2. fgnidtelxxn

    fgnidtelxxn New Member

    Joined:
    Dec 17, 2013
    Messages:
    0
    Likes Received:
    0
    Trophy Points:
    0
    thanks tikybadboy...
     
  3. hamboka

    hamboka Guest

    Thanks
     
  4. andromur

    andromur New Member

    Joined:
    Jan 5, 2014
    Messages:
    0
    Likes Received:
    0
    Trophy Points:
    0
    thanks for the share
     
  5. rayman2170

    rayman2170 Guest

    Thanks Dude
     
  6. Namymughnag

    Namymughnag Guest

    Big thanx.
     
  7. ercumentist

    ercumentist Guest

  8. bioscum

    bioscum Guest

    not sure if i did this right thanks
     
  9. angdwa

    angdwa Guest

    thanks flend...
     
  10. Code:
    ................................
     
  11. Agobewepreree

    Agobewepreree New Member

    Joined:
    Oct 23, 2012
    Messages:
    0
    Likes Received:
    0
    Trophy Points:
    0
    Occupation:
    Guyana
    Location:
    Guyana
    Home Page:
    thanks for share
     
  12. cg55

    cg55 Guest

    thank you for the great post.
     
  13. thesound

    thesound Guest

    Thanks
     
  14. z33izmaname

    z33izmaname New Member

    Joined:
    Apr 9, 2012
    Messages:
    0
    Likes Received:
    0
    Trophy Points:
    0
    thank you mate
     
  15. trilofos

    trilofos Guest

    thanks
     
  16. jacky_lam

    jacky_lam Guest

    thanks. ^_^
     
  17. mous53

    mous53 Guest

    thanks for share
     
  18. johnkhor

    johnkhor Guest

    Thanks..
     
  19. kondalj

    kondalj New Member

    Joined:
    Sep 14, 2012
    Messages:
    0
    Likes Received:
    0
    Trophy Points:
    0
    Thanks a lot man.

    Banal
     

Share This Page