Inception (2010) CAM XviD-TA(Clear Ver) 1.4 GB

Discussion in 'Archive' started by arthonad87, Jul 22, 2010.

  1. arthonad87

    arthonad87 Guest

    [​IMG]

    [​IMG]
    Code:
    Inception.2010.CAM.XviD-TA 
    ---------------------------------- 
    Source                           : Our Own, (Thanks SLUGGER) 
    Complete name                    : Inception.2010.CAM.XviD-TA_RlsToday.net.avi 
    Format                           : AVI 
    Format/Info                      : Audio Video Interleave 
    File size                        : 1.41 GiB 
    Duration                         : 2h 10mn 
    Overall bit rate                 : 1 545 Kbps 
    Writing library                  : VirtualDub build 32661/release 
    
    Video 
    ID                               : 0 
    Format                           : MPEG-4 Visual 
    Format profile                   : AdvancedSimple@L5 
    Format settings, BVOP            : Yes 
    Format settings, QPel            : No 
    Format settings, GMC             : No warppoints 
    Format settings, Matrix          : Default (H.263) 
    Muxing mode                      : Packed bitstream 
    Codec ID                         : XVID 
    Codec ID/Hint                    : XviD 
    Duration                         : 2h 10mn 
    Bit rate                         : 1 406 Kbps 
    Width                            : 640 pixels 
    Height                           : 352 pixels 
    Display aspect ratio             : 16:9 
    Frame rate                       : 29.970 fps 
    Resolution                       : 24 bits 
    Colorimetry                      : 4:2:0 
    Scan type                        : Progressive 
    Bits/(Pixel*Frame)               : 0.208 
    Stream size                      : 1.28 GiB (91%) 
    Writing library                  : XviD 1.2.1 (UTC 2008-12-04) 
    
    Audio 
    ID                               : 1 
    Format                           : MPEG Audio 
    Format version                   : Version 1 
    Format profile                   : Layer 3 
    Codec ID                         : 55 
    Codec ID/Hint                    : MP3 
    Duration                         : 2h 10mn 
    Bit rate mode                    : Constant 
    Bit rate                         : 128 Kbps 
    Channel(s)                       : 2 channels 
    Sampling rate                    : 44.1 KHz 
    Resolution                       : 16 bits 
    Stream size                      : 120 MiB (8%) 
    Alignment                        : Split accross interleaves 
    Interleave, duration             : 33 ms (1.00 video frame) 
    Interleave, preload duration     : 500 ms 
    
    Note: thanks to DDC u can find them on efnet channel #ddcrew 
    thanks to trackeraccess for there server
    
    [​IMG]
    [​IMG]

    HF link not interchangable
    [​IMG]
    Code:
    http://hotfile.com/dl/56837964/3fca86e/Incptn10.CAM.XviD-TA.avi.001.html
    http://hotfile.com/dl/56838019/2fa76e1/Incptn10.CAM.XviD-TA.avi.002.html
    http://hotfile.com/dl/56838391/603c23a/Incptn10.CAM.XviD-TA.avi.003.html
    http://hotfile.com/dl/56838432/9a69c11/Incptn10.CAM.XviD-TA.avi.004.html
    
    [​IMG]
    Code:
    http://uploading.com/files/42bd7d8m/Incptn10.CAM.XviD-TA.avi.001/
    http://uploading.com/files/1f2fabb5/Incptn10.CAM.XviD-TA.avi.002/
    http://uploading.com/files/829c11d2/Incptn10.CAM.XviD-TA.avi.003/
    http://uploading.com/files/cb8dad7a/Incptn10.CAM.XviD-TA.avi.004/
    http://uploading.com/files/9be58c25/Incptn10.CAM.XviD-TA.avi.005/
    http://uploading.com/files/78743df1/Incptn10.CAM.XviD-TA.avi.006/
    http://uploading.com/files/8cd718ae/Incptn10.CAM.XviD-TA.avi.007/
    http://uploading.com/files/fd1fm81a/Incptn10.CAM.XviD-TA.avi.008/
    [​IMG]
    Code:
    http://www.enterupload.com/yz4c122tfll2/Incptn10.CAM.XviD-TA.avi.001.html
    http://www.enterupload.com/scj9fbn7oyf8/Incptn10.CAM.XviD-TA.avi.002.html
    http://www.enterupload.com/hxrccv5jh8ea/Incptn10.CAM.XviD-TA.avi.003.html
    http://www.enterupload.com/68qk7duy0h8l/Incptn10.CAM.XviD-TA.avi.004.html
    http://www.enterupload.com/86ny8n1l0pl4/Incptn10.CAM.XviD-TA.avi.005.html
    http://www.enterupload.com/4e7k02wcperq/Incptn10.CAM.XviD-TA.avi.006.html
    http://www.enterupload.com/fdy20jzj39hb/Incptn10.CAM.XviD-TA.avi.007.html
    http://www.enterupload.com/koaru7741gox/Incptn10.CAM.XviD-TA.avi.008.html

    Extract Use this soft
    Code:
    http://rapidshare.com/files/394715595/FSJSetup.rar

    Took 4 Hours to Upload
    Took 3 Minutes to Scan
    Took 9 Minutes to Create Topic/Screens
    Takes 6 Seconds to say "Thank You", or 4 seconds to say "Whoooo"
    :D
     
  2. arthonad87

    arthonad87 Guest

    HF link update
     
  3. hussau39ei

    hussau39ei Guest

    Thanks the print looks clean :) I am downloading
     
  4. lichspicype

    lichspicype New Member

    Joined:
    Oct 11, 2012
    Messages:
    0
    Likes Received:
    0
    Trophy Points:
    0
    Occupation:
    Nicaragua
    Location:
    Nicaragua
    Home Page:
    Thankyou :d
     
  5. jbowie62

    jbowie62 Guest

    Thanx for the post.
     
  6. msrikantt

    msrikantt Guest

    Thanks dude.
     
  7. arthonad87

    arthonad87 Guest

    HF link update
     
  8. alihadad

    alihadad Guest

    Thank you so much
     
  9. rapidshare link down please update
     
  10. handrix_50

    handrix_50 Guest

    more better print ...............................
     
  11. kona245

    kona245 Guest

    thanks
     
  12. ahmedsaleh

    ahmedsaleh New Member

    Joined:
    Aug 22, 2012
    Messages:
    0
    Likes Received:
    0
    Trophy Points:
    0
    Awesome share..thanks
     
  13. bayemir18

    bayemir18 New Member

    Joined:
    Mar 11, 2013
    Messages:
    0
    Likes Received:
    0
    Trophy Points:
    0
  14. panteracosa

    panteracosa Guest

    Thank you for sharing
     
  15. kalaban09

    kalaban09 New Member

    Joined:
    Mar 27, 2013
    Messages:
    0
    Likes Received:
    0
    Trophy Points:
    0
    thank you for this movie
     
  16. arthonad87

    arthonad87 Guest

    welcome guys
     
  17. khongtac07

    khongtac07 Guest

  18. royhuijian

    royhuijian New Member

    Joined:
    Jul 20, 2012
    Messages:
    0
    Likes Received:
    0
    Trophy Points:
    0
  19. gootastic

    gootastic Guest

  20. lordsinclair

    lordsinclair Guest

    Hf lýnk....
     

Share This Page