Inception.2010. CAM.XviD-TA

Discussion in 'Archive' started by TMW, Jul 22, 2010.

  1. TMW

    TMW Guest

    ****************************************************
    Inception.2010. CAM.XviD-TA
    ****************************************************

    5% data recovery! My upload


    [​IMG]
    [​IMG]

    Code:
                             
                                                   
    ********************************************************************************************************************                                
                                 Inception.2010. CAM.XviD-TA
    ********************************************************************************************************************
    Plot:
    Dom Cobb is a skilled thief, the absolute best in the dangerous art of extraction, 
    stealing valuable secrets from deep within the subconscious during the dream state,
    when the mind is at its most vulnerable. Cobb's rare ability has made him a coveted player in this treacherous 
    new world of corporate espionage, but it has also made him an international fugitive and cost him everything he has ever loved. 
    Now Cobb is being offered a chance at redemption. One last job could give him his life back but only 
    if he can accomplish the impossible-inception. Instead of the perfect heist,
    Cobb and his team of specialists have to pull off the reverse: their task is not to steal an idea but to plant one. 
    If they succeed, it could be the perfect crime. But no amount of careful planning or expertise can prepare the team 
    for the dangerous enemy that seems to predict their every move. An enemy that only Cobb could have seen coming.
    
    http://www.imdb.com/title/tt1375666/
    
    
    
    Source                           : Our Own, (Thanks SLUGGER)
    Complete name                    : Inception.2010.CAM.XviD-TA.avi
    Format                           : AVI
    Format/Info                      : Audio Video Interleave
    File size                        : 1.41 GiB
    Duration                         : 2h 10mn
    Overall bit rate                 : 1 545 Kbps
    Writing library                  : VirtualDub build 32661/release
    
    Video
    ID                               : 0
    Format                           : MPEG-4 Visual
    Format profile                   : AdvancedSimple@L5
    Format settings, BVOP            : Yes
    Format settings, QPel            : No
    Format settings, GMC             : No warppoints
    Format settings, Matrix          : Default (H.263)
    Muxing mode                      : Packed bitstream
    Codec ID                         : XVID
    Codec ID/Hint                    : XviD
    Duration                         : 2h 10mn
    Bit rate                         : 1 406 Kbps
    Width                            : 640 pixels
    Height                           : 352 pixels
    Display aspect ratio             : 16:9
    Frame rate                       : 29.970 fps
    Resolution                       : 24 bits
    Colorimetry                      : 4:2:0
    Scan type                        : Progressive
    Bits/(Pixel*Frame)               : 0.208
    Stream size                      : 1.28 GiB (91%)
    Writing library                  : XviD 1.2.1 (UTC 2008-12-04)
    
    Audio
    ID                               : 1
    Format                           : MPEG Audio
    Format version                   : Version 1
    Format profile                   : Layer 3
    Codec ID                         : 55
    Codec ID/Hint                    : MP3
    Duration                         : 2h 10mn
    Bit rate mode                    : Constant
    Bit rate                         : 128 Kbps
    Channel(s)                       : 2 channels
    Sampling rate                    : 44.1 KHz
    Resolution                       : 16 bits
    Stream size                      : 120 MiB (8%)
    Alignment                        : Split accross interleaves
    Interleave, duration             : 33 ms (1.00 video frame)
    Interleave, preload duration     : 500 ms
    
    
     

    USER RATING: 9.3/10 46,333 votes

    [​IMG]
    Code:
    http://www.imdb.com/title/tt1375666/


    [​IMG]
    [​IMG]
    [​IMG]
    [​IMG]
    [​IMG]





    [​IMG]



    Code:
    http://sharingmatrix.com/file/16036505/IC.2010.by.TeamWar.rar.001
    http://sharingmatrix.com/file/16036337/IC.2010.by.TeamWar.rar.002
    http://sharingmatrix.com/file/16036351/IC.2010.by.TeamWar.rar.003
    http://sharingmatrix.com/file/16036367/IC.2010.by.TeamWar.rar.004
    
    OR

    Code:
    http://hotfile.com/dl/59613291/42ce60b/IC.2010.by.TeamWar.rar.002.html
    http://hotfile.com/dl/59613776/67696cf/IC.2010.by.TeamWar.rar.003.html
    http://hotfile.com/dl/59614031/8b9e668/IC.2010.by.TeamWar.rar.004.html
    http://hotfile.com/dl/59614649/26048be/IC.2010.by.TeamWar.rar.001.html


    [​IMG]
     
  2. noddle

    noddle Guest

    thanks
     
  3. banmar

    banmar Guest

    thanks for this
     
  4. TMW

    TMW Guest

    You're welcome
     
  5. kona245

    kona245 Guest

    thanks
     
  6. diaz01

    diaz01 Guest

    Thanks
     
  7. TMW

    TMW Guest

    Thanks for u reply
     
  8. rachface

    rachface Guest

    Thanks but what's the password?
     
  9. rachface

    rachface Guest

    Can someone please tell me the password? I have searched throughout google. This guessing game is maddening!
     
  10. TMW

    TMW Guest

    add new mirror

    My upload dont have password, because i dont use password!!
     
  11. rachface

    rachface Guest

    Whats the password please!!
     
  12. TMW

    TMW Guest

    i dont use password for my upload - please dont lie about password
     
  13. TMW

    TMW Guest

    reupload HF files
     
  14. TMW

    TMW Guest

    refresh files
     
  15. serafeimk

    serafeimk Guest

    thx!!!!!!!!!!!!
     
  16. any chance of rapidshare links please
     
  17. TMW

    TMW Guest

    sorry i upload only for HF or SM

    reupload files
     
  18. TMW

    TMW Guest

    refresh files
     
  19. TMW

    TMW Guest

    refresh files
     
  20. TMW

    TMW Guest

    I post fresh links
     

Share This Page