Iron Man 2 TS XViD - IMAGiNE

Discussion in 'Archive' started by robertd12, May 8, 2010.

  1. robertd12

    robertd12 Guest

    Iron Man 2 TS XViD - IMAGiNE
    10% recovery data added / 10% danych naprawczych

    [​IMG]

    Info

    Code:
       *********** ****    ****      ***      ******** *********** ****    *** **********
              *+*     +*+*+* *+*+*+   *+* *+*   *+*    *+*    *+*     *+*+*   *+* *+*       
              +*+     +*+ +*+*+ +*+  +*+   +*+  +*+           +*+     *+*+*+  +*+ +*+       
              +$+     +$+  +*+  +$+ +$++*++$++* *$*           +$+     +$+ +*+ +$+ +$++*++$ 
              +$+     +$+       +$+ +$+     +$+ +$+   +$+$    +$+     +$+  +$+$+$ +$+       
              $+$     $+$       $+$ $+$     $+$ $+$    $+$    $+$     $+$   $+$+$ $+$       
          $$$$$$$$$$$ $$$       $$$ $$$     $$$  $$$$$$$$ $$$$$$$$$$$ $$$    $$$$ $$$$$$$$$$   
                                                  
    
    
    
                              Another Fine Release Brought to you from - IMAGiNE                 
                                                    http://imaginegroup.me/
    
    ********************************************************************************************************************                               
                                           Iron Man 2 TS XViD - IMAGiNE
    ********************************************************************************************************************
    
    Ripper ...........: IMAGiNE                                        IMDB Rating.......:7.9/10                           
    Video Codec.......: XVID                                         Release Date......:08/05/10
    Audio Codec.......:MP3                                           Theatre Date......:07/05/10
    Audio Bitrate.....:128                                              Runtime.......:1h 52mn
    Subtitles.........:NIL                                                 Language..........:ENGLISH
    Resolution...... 720 x 288                                      IMDb URL..........:http://www.imdb.com/title/tt1228705/
    
    
    DETAILS:
    
    Video
    ID                               : 0
    Format                           : MPEG-4 Visual
    Format profile                   : Advanced Simple@L5
    Format settings, BVOP            : Yes
    Format settings, QPel            : No
    Format settings, GMC             : No warppoints
    Format settings, Matrix          : Default (MPEG)
    Muxing mode                      : Packed bitstream
    Codec ID                         : XVID
    Codec ID/Hint                    : XviD
    Duration                         : 1h 52mn
    Bit rate                         : 1 608 Kbps
    Width                            : 720 pixels
    Height                           : 288 pixels
    Display aspect ratio             : 2.500
    Frame rate                       : 25.000 fps
    Resolution                       : 24 bits
    Colorimetry                      : 4:2:0
    Scan type                        : Progressive
    Bits/(Pixel*Frame)               : 0.310
    Stream size                      : 1.26 GiB (100%)
    Writing library                  : XviD 1.2.1 (UTC 2008-12-04)
    
    
    Audio
    Format                           : MPEG Audio
    Format version                   : Version 1
    Format profile                   : Layer 3
    Mode                             : Joint stereo
    Format_Settings_ModeExtension    : MS Stereo
    Duration                         : 1h 52mn
    Bit rate mode                    : Constant
    Bit rate                         : 128 Kbps
    Channel(s)                       : 2 channels
    Sampling rate                    : 48.0 KHz
    Stream size                      : 103 MiB (100%)
    
    
    
    NOTES:
    
    IMAGiNE bringing you another release.....Iron Man 2
    
    Sources used....Russian TS and the audio is our own direct audio that we mentioned in the cam release. ;-) Syncing it was a right pain, but turned out great.
    
    
    
    Enjoy
    Screenshoots

    [​IMG]
    [​IMG]
    [​IMG]
    [​IMG]

    Download

    200mb Parts / No Password / Bez Hasła

    Code:
    http://rapidshare.com/files/385080709/IM2.TS_XViD_-_IMAGiNE.part1.rar
    http://rapidshare.com/files/385080420/IM2.TS_XViD_-_IMAGiNE.part2.rar
    http://rapidshare.com/files/385080257/IM2.TS_XViD_-_IMAGiNE.part3.rar
    http://rapidshare.com/files/385080373/IM2.TS_XViD_-_IMAGiNE.part4.rar
    http://rapidshare.com/files/385081510/IM2.TS_XViD_-_IMAGiNE.part5.rar
    http://rapidshare.com/files/385081144/IM2.TS_XViD_-_IMAGiNE.part6.rar
    http://rapidshare.com/files/385081477/IM2.TS_XViD_-_IMAGiNE.part7.rar
    Thanks for downloading from my links / Dziękuje za pobieranie z moich linków

    Enjoy!
     
  2. bobbo69

    bobbo69 Guest

    Thank you much.[​IMG]
     
  3. robbiejoe

    robbiejoe New Member

    Joined:
    Oct 21, 2012
    Messages:
    0
    Likes Received:
    0
    Trophy Points:
    0
    dose this one have the baby crying in the backround or is this better???
     
  4. GeeOne

    GeeOne Guest

    Thank you.
     
  5. houseman

    houseman Guest

    Nice One, Thanks For The RS Links!
     
  6. freedom73

    freedom73 Guest

    thanks !!
     
  7. Eindio

    Eindio Guest

    Thanks Dude >>>:triniti:
     
  8. freedom2007

    freedom2007 Guest

    Thanks ...
     
  9. custer

    custer Guest

    The video is the same Russian cam. The audio does appear to be a true TS.

    Apologies to Imagine. It was Nero Showtime not picking up the correct sync.
    Virtualdub does play this in correct sync and it is very close.
    Hopefully desktop players and conversions to dvd format will have the same
    good sync.
    Thank you for the share.
     
  10. foq982ray

    foq982ray Guest

    thanks
     
  11. thank you:heyo:
     
  12. thanks mon!!!:beach::beach:
     
  13. custer

    custer Guest

    No baby crying. This appears to be a true TS [audio captured from an audio jack,
    not from a recorder on the theatre floor] and as such there's no background noise.
     
  14. rukamax

    rukamax Guest

    how is the video quality??
    is that same as the screen shots?

    anyway thanks for share..:clapping::clapping:
     
  15. btaylorcali

    btaylorcali Guest

    thank you
     

Share This Page