Its a Wonderful Life 1946 iNTERNAL BDRip XviD-EXViDiNT

Discussion in 'Movies' started by RMTeam, Oct 12, 2012.

  1. RMTeam

    RMTeam Active Member

    Joined:
    Feb 18, 2012
    Messages:
    4,485
    Likes Received:
    2
    Trophy Points:
    38
    Its a Wonderful Life 1946 iNTERNAL BDRip XviD-EXViDiNT

    [​IMG]


    It's a Wonderful Life (1946)
    Genre: Drama | Fantasy
    Directed By: Frank Capra
    Cast: James Stewart, Donna Reed, Lionel Barrymore
    Country: USA
    Original Language: English
    Storyline: An angel helps a compassionate but despairingly frustrated businessman by showing what life would have been like if he never existed.

    [​IMG]

    [​IMG]

    [​IMG]


    Director: Frank Capra

    Genre: Drama | Fantasy

    Plot:
    An angel helps a compassionate but despairingly frustrated businessman by showing what life
    would have been like if he never existed.

    Cast:
    James Stewart ... George Bailey
    Donna Reed ... Mary Hatch
    Lionel Barrymore ... Henry F. Potter
    Thomas Mitchell ... Uncle Billy Bailey
    Henry Travers ... Clarence
    Beulah Bondi ... Ma Bailey
    Frank Faylen ... Ernie Bishop
    Ward Bond ... Bert
    Gloria Grahame ... Violet Bick
    H.B. Warner ... Mr. Gower
    Frank Albertson ... Sam Wainwright
    Todd Karns ... Harry Bailey
    Samuel S. Hinds ... Peter Bailey
    Mary Treen ... Cousin Tilly
    Virginia Patton ... Ruth Dakin Bailey

    Stats:
    Format : AVI
    Format/Info : Audio Video Interleave
    File size : 1.37 GiB
    Duration : 2h 10mn
    Overall bit rate : 1 500 Kbps
    Writing application : Nandub v1.0rc2
    Writing library : Nandub build 1852/release

    Video
    ID : 0
    Format : MPEG-4 Visual
    Format profile : Advanced Simple@L5
    Format settings, BVOP : 2
    Format settings, QPel : No
    Format settings, GMC : No warppoints
    Format settings, Matrix : Default (H.263)
    Codec ID : XVID
    Codec ID/Hint : XviD
    Duration : 2h 10mn
    Bit rate : 1 415 Kbps
    Width : 512 pixels
    Height : 384 pixels
    Display aspect ratio : 4:3
    Frame rate : 23.976 fps
    Color space : YUV
    Chroma subsampling : 4:2:0
    Bit depth : 8 bits
    Scan type : Progressive
    Compression mode : Lossy
    Bits/(Pixel*Frame) : 0.300
    Stream size : 1.29 GiB (94%)
    Writing library : XviD 64

    Audio
    ID : 1
    Format : MPEG Audio
    Format version : Version 1
    Format profile : Layer 3
    Codec ID : 55
    Codec ID/Hint : MP3
    Duration : 2h 10mn
    Bit rate mode : Variable
    Bit rate : 71.7 Kbps
    Nominal bit rate : 80.0 Kbps
    Channel(s) : 1 channel
    Sampling rate : 48.0 KHz
    Compression mode : Lossy
    Stream size : 66.9 MiB (5%)
    Alignment : Aligned on interleaves
    Interleave, duration : 24 ms (0.58 video frame)
    Interleave, preload duration : 246 ms
    Writing library : LAME3.98r
    Encoding settings : -m m -V 4 -q 3 -lowpass 20.3 --abr 80



    [​IMG]

    Code:
    http://extabit.com/file/28wbpbr80i2m5/




    .
     

Share This Page