John Carter 2012 CAM x264 AC3 - HOPE

Discussion in '2012 Movies' started by RMTeam, Mar 11, 2012.

  1. RMTeam

    RMTeam Active Member

    Joined:
    Feb 18, 2012
    Messages:
    4,485
    Likes Received:
    2
    Trophy Points:
    38
    John Carter 2012 CAM x264 AC3 - HOPE

    [​IMG]

    John Carter (2012)
    Genre: Action | Adventure | Fantasy
    Directed By: Andrew Stanton
    Cast: Taylor Kitsch, Lynn Collins, Samantha Morton
    MPAA Rate: PG-13
    Storyline: Transplanted to Mars, a Civil War vet discovers a lush planet inhabited by 12-foot tall barbarians. Finding himself a prisoner of these creatures, he escapes, only to encounter a princess who is in desperate need of a savior.

    Code:
        IMDB Rate: 6.8
        IMDB: http://www.imdb.com/title/tt0401729/
    John Carter 2012 CAM x264 AC3 - HOPE



    Plot:
    Transplanted to Mars, a Civil War vet discovers a lush planet inhabited by 12-foot tall barbarians. Finding himself a prisoner of these creatures, he escapes, only to encounter a princess who is in desperate need of a savior.


    Information:
    Format : Matroska
    Format version : Version 2
    File size : 1 021 MiB
    Duration : 1h 59mn
    Overall bit rate : 1 191 Kbps
    Encoded date : UTC 2012-03-11 16:09:02
    Writing application : mkvmerge v5.3.0 ('I could have danced') built on Feb 9 2012 10:38:07
    Writing library : libebml v1.2.3 + libmatroska v1.3.0

    Video
    ID : 1
    Format : AVC
    Format/Info : Advanced Video Codec
    Format profile : High@L5.1
    Format settings, CABAC : Yes
    Format settings, ReFrames : 6 frames
    Codec ID : V_MPEG4/ISO/AVC
    Duration : 1h 59mn
    Bit rate : 1 061 Kbps
    Width : 690 pixels
    Height : 288 pixels
    Display aspect ratio : 2.40:1
    Frame rate : 25.000 fps
    Color space : YUV
    Chroma subsampling : 4:2:0
    Bit depth : 8 bits
    Scan type : Progressive
    Bits/(Pixel*Frame) : 0.214
    Stream size : 891 MiB (87%)
    Writing library : x264 core 122 r2183 c522ad1

    Audio
    ID : 2
    Format : MPEG Audio
    Format version : Version 1
    Format profile : Layer 3
    Mode : Joint stereo
    Mode extension : MS Stereo
    Codec ID : A_MPEG/L3
    Codec ID/Hint : MP3
    Duration : 1h 59mn
    Bit rate mode : Constant
    Bit rate : 128 Kbps
    Channel(s) : 2 channels
    Sampling rate : 44.1 KHz
    Compression mode : Lossy
    Stream size : 110 MiB (11%)


    DOWNLOAD
    Code:
    http://www.rarefile.net/ge2ykx56bp3b/j.c.2012.c.x264.a3.h.u24513.RMTeam.part1.rar
    http://www.rarefile.net/dyhxwbul6jbq/j.c.2012.c.x264.a3.h.u24513.RMTeam.part2.rar
    http://www.rarefile.net/ngx06qcclb7r/j.c.2012.c.x264.a3.h.u24513.RMTeam.part3.rar



    [​IMG]

    [​IMG]

    [​IMG]


    My affiliate link
     
  2. ando432

    ando432 New Member

    Joined:
    Mar 11, 2012
    Messages:
    2
    Likes Received:
    0
    Trophy Points:
    1
    thanks....
     

Share This Page