Knight and Day TS XviD-FLAWL3SS

Discussion in 'Archive' started by Aeons, Jul 22, 2010.

  1. Aeons

    Aeons Guest

    Knight and Day TS XviD-FLAWL3SS
    No Password | My Upload | Single Extraction | 10% Recovery | Backup Files



    [​IMG]


    [​IMG]

    Code:
    Video
    ID : 0
    Format : MPEG-4 Visual
    Format profile : Advanced Simple@L5
    Format settings, BVOP : Yes
    Format settings, QPel : No
    Format settings, GMC : No warppoints
    Format settings, Matrix : Default (MPEG)
    Codec ID : XVID
    Codec ID/Hint : XviD
    Duration : 1h 44mn
    Bit rate : 1 732 Kbps
    Width : 636 pixels
    Height : 290 pixels
    Display aspect ratio : 2.35:1
    Frame rate : 25.000 fps
    Resolution : 8 bits
    Colorimetry : 4:2:0
    Scan type : Progressive
    Bits/(Pixel*Frame) : 0.376
    Stream size : 1.26 GiB (93%)
    Writing library : XviD 1.2.1 (UTC 2008-12-04)
    
    Audio
    ID : 1
    Format : MPEG Audio
    Format version : Version 1
    Format profile : Layer 3
    Codec ID : 55
    Codec ID/Hint : MP3
    Duration : 1h 44mn
    Bit rate mode : Constant
    Bit rate : 128 Kbps
    Channel(s) : 2 channels
    Sampling rate : 44.1 KHz
    Video delay : 9s 0ms
    Stream size : 95.3 MiB (7%)
    Alignment : Split accross interleaves
    Interleave, duration : 40 ms (1.00 video frame)
    Interleave, preload duration : 500 ms
    [​IMG]
    Code:
    http://www.imdb.com/title/tt1013743/

    [​IMG]

    [​IMG]
    [​IMG]
    [​IMG]
    [​IMG]


    [​IMG]



    ### SharingMatrix Link's: 260MB ###

    Code:
    http://sharingmatrix.com/file/15950001/Knight_and_Day_TS_XviD-FLAWL3SS_Aeon.part1.rar	
    http://sharingmatrix.com/file/15950695/Knight_and_Day_TS_XviD-FLAWL3SS_Aeon.part2.rar	
    http://sharingmatrix.com/file/15950705/Knight_and_Day_TS_XviD-FLAWL3SS_Aeon.part3.rar	
    http://sharingmatrix.com/file/15951023/Knight_and_Day_TS_XviD-FLAWL3SS_Aeon.part4.rar	
    http://sharingmatrix.com/file/15951031/Knight_and_Day_TS_XviD-FLAWL3SS_Aeon.part5.rar	
    http://sharingmatrix.com/file/15951263/Knight_and_Day_TS_XviD-FLAWL3SS_Aeon.part6.rar


    ### Hotfile Link's: 400MB ###

    Code:
    http://hotfile.com/dl/58968927/3e55e9d/Knight_and_Day_TS_XviD-FLAWL3SS_Aeon.part1.rar.html
    http://hotfile.com/dl/58970660/2379a14/Knight_and_Day_TS_XviD-FLAWL3SS_Aeon.part2.rar.html
    http://hotfile.com/dl/58971093/421e09e/Knight_and_Day_TS_XviD-FLAWL3SS_Aeon.part3.rar.html
    http://hotfile.com/dl/58974252/3d073c7/Knight_and_Day_TS_XviD-FLAWL3SS_Aeon.part4.rar.html

    [​IMG]
     
  2. Aeons

    Aeons Guest

    Reupload all links
     
  3. Aeons

    Aeons Guest

    Reupload done Enjoy
     
  4. Aeons

    Aeons Guest

    Reupload free links
     
  5. ziomus_rafal

    ziomus_rafal Guest

    thank you so much :) really good upload :)
     
  6. Aeons

    Aeons Guest

    Reupload done and added FileServe Links
     
  7. Aeons

    Aeons Guest

    Added xxxxxxxx links
     
  8. Aeons

    Aeons Guest

    Added HotFile Links
     
  9. seekers

    seekers Guest

    thank-you
     
  10. Aeons

    Aeons Guest

    Reupload SM link's
     
  11. Aeons

    Aeons Guest

    Added HF links Enjoy
     
  12. Aeons

    Aeons Guest

    reuplaod sm links
     
  13. ronnie2010

    ronnie2010 Guest

    thank you
     

Share This Page