Knowing[2009]DVDrip.Xvid[Eng]

Discussion in 'Archive' started by popo, Jun 20, 2009.

  1. popo

    popo Guest

    HTML:
    Knowing[2009]DVDrip.Xvid[Eng]


    [​IMG]

    Info:
    Code:
    Knowing[2009]DVDrip.Xvid[Eng]
    
    http://www.imdb.com/title/tt0448011
    
    
    This is a 1CD/800Mb re-encode made from DiAMOND's release
    (Knowing.DVDRip.XviD-DiAMOND)
    
    
    
    General
    Complete name                    : Knowing[2009]DVDrip.Xvid[Eng].avi
    Format                           : AVI
    Format/Info                      : Audio Video Interleave
    Format profile                   : OpenDML
    File size                        : 801 MiB
    Duration                         : 2h 1mn
    Overall bit rate                 : 922 Kbps
    Writing application              : AVI-Mux GUI 1.17.8, Aug 30 2008  12:36:58
    
    Video
    ID                               : 0
    Format                           : MPEG-4 Visual
    Format profile                   : Streaming Video@L1
    Format settings, BVOP            : Yes
    Format settings, QPel            : No
    Format settings, GMC             : No warppoints
    Format settings, Matrix          : Default (H.263)
    Muxing mode                      : Packed bitstream
    Codec ID                         : XVID
    Codec ID/Hint                    : XviD
    Duration                         : 2h 1mn
    Bit rate                         : 786 Kbps
    Width                            : 640 pixels
    Height                           : 272 pixels
    Display aspect ratio             : 2.35
    Frame rate                       : 23.976 fps
    Resolution                       : 24 bits
    Colorimetry                      : 4:2:0
    Scan type                        : Progressive
    Bits/(Pixel*Frame)               : 0.188
    Stream size                      : 683 MiB (85%)
    Writing library                  : XviD 1.2.2
    
    Audio
    ID                               : 1
    Format                           : MPEG Audio
    Format version                   : Version 1
    Format profile                   : Layer 3
    Codec ID                         : 55
    Codec ID/Hint                    : MP3
    Duration                         : 2h 1mn
    Bit rate mode                    : Constant
    Bit rate                         : 128 Kbps
    Channel(s)                       : 2 channels
    Sampling rate                    : 48.0 KHz
    Resolution                       : 16 bits
    Stream size                      : 111 MiB (14%)
    Alignment                        : Aligned on interleaves
    Interleave, duration             : 24 ms (0.58 video frame)
    Interleave, preload duration     : 504 ms
    Writing library                  : LAME3.98r
    Encoding settings                : -m j -V 4 -q 2 -lowpass 17 -b 128
    Download:
    Code:
    http://rapidshare.com/files/246577037/KN09.part1.rar
    http://rapidshare.com/files/246584150/KN09.part2.rar
    http://rapidshare.com/files/246591877/KN09.part3.rar
    http://rapidshare.com/files/246600530/KN09.part4.rar
    http://rapidshare.com/files/246600685/KN09.part5.rar
     
  2. reydivx

    reydivx Guest

    thanks!!! from Argentina!!!
     
  3. hoangel

    hoangel Guest

    many thank :D only 800mb
    i love u :D
     
  4. tntintl1

    tntintl1 Guest

    :heyo::heyo:
     
  5. ecvds

    ecvds Guest

    thanks :heyo:
     
  6. B3sfort

    B3sfort Guest

    is in 2cd or 1cd
     
  7. LetLuv2_9

    LetLuv2_9 Guest

    1CD great job, good post ...............Thanks
     
  8. dasd0fou8kk

    dasd0fou8kk New Member

    Joined:
    May 15, 2013
    Messages:
    0
    Likes Received:
    0
    Trophy Points:
    0
    :cray::24::24::24::sim12::heyo::heyo::heyo::heyo::sim12:
     
  9. Turkdoisch

    Turkdoisch New Member

    Joined:
    Aug 11, 2012
    Messages:
    0
    Likes Received:
    0
    Trophy Points:
    0
    :triniti:GOOD LOOK:triniti:
     
  10. low1

    low1 Guest

    thanks:heyo:
     
  11. cvija

    cvija New Member

    Joined:
    Feb 24, 2013
    Messages:
    0
    Likes Received:
    0
    Trophy Points:
    0
    brilliant job :heyo::heyo: thank you for all your hard work
     
  12. grupt11

    grupt11 Guest

    thank you
     
  13. rehammagdy

    rehammagdy New Member

    Joined:
    Dec 21, 2013
    Messages:
    0
    Likes Received:
    0
    Trophy Points:
    0
    thanks . dude
     
  14. nishaarram

    nishaarram New Member

    Joined:
    May 23, 2014
    Messages:
    0
    Likes Received:
    0
    Trophy Points:
    0
    thank you.
     
  15. Dark Dragon

    Dark Dragon Guest

  16. joeysalonga

    joeysalonga Guest

    tnx mate
     
  17. pleasya

    pleasya Guest

    thank you
     
  18. floorsh

    floorsh New Member

    Joined:
    Oct 19, 2012
    Messages:
    0
    Likes Received:
    0
    Trophy Points:
    0
    thanks
     
  19. IceMan_sr

    IceMan_sr Guest

    thanks:heyo::heyo::heyo::heyo::heyo::heyo:
     
  20. Kami

    Kami New Member

    Joined:
    Feb 8, 2013
    Messages:
    0
    Likes Received:
    0
    Trophy Points:
    0
    thank you
     

Share This Page