Legion 2010 * R5 LiNE * x264 * 300mb * TEAM DAYN

Discussion in 'Archive' started by szykmon2, Mar 19, 2010.

  1. szykmon2

    szykmon2 Guest

    Legion 2010 * R5 LiNE * x264 * 300mb * TEAM DAYN

    [​IMG]

    Code:
    Complete name                    : Legion.R5.LiNE.x264.300mb.V2.704x288.Headu!.mkv
    Format                           : Matroska
    File size                        : 293 MiB
    Duration                         : 1h 35mn
    Overall bit rate                 : 427 Kbps
    Encoded date                     : UTC 2010-02-28 02:18:00
    Writing application              : VirtualDubMod 1.5.4.1 (build 2066/release)
    Writing library                  : libebml-0.5.0 & libmatroska-0.5.0
    
    Video
    ID                               : 1
    Format                           : x264
    Codec ID                         : x264
    Duration                         : 1h 35mn
    Bit rate                         : 386 Kbps
    Width                            : 704 pixels
    Height                           : 288 pixels
    Display aspect ratio             : 2.444
    Frame rate                       : 25.000 fps
    Resolution                       : 24 bits
    Bits/(Pixel*Frame)               : 0.076
    Stream size                      : 265 MiB (91%)
    
    Audio
    ID                               : 2
    Format                           : MPEG Audio
    Format version                   : Version 2
    Format profile                   : Layer 3
    Codec ID                         : A_MPEG/L3
    Codec ID/Hint                    : MP3
    Duration                         : 1h 35mn
    Bit rate mode                    : Constant
    Bit rate                         : 32.0 Kbps
    Channel(s)                       : 2 channels
    Sampling rate                    : 16.0 KHz
    Resolution                       : 16 bits
    Stream size                      : 22.0 MiB (8%)
    [​IMG]
    [​IMG]
    [​IMG]
    [​IMG]
    [​IMG]
    [​IMG]
    [​IMG]

    Download:

    RS:

    Code:
    http://rapidshare.com/files/365476998/Legion.R5.LiNE.x264.300mb.V2.704x288.TEAM_DAYN.part1.rar
    http://rapidshare.com/files/365475951/Legion.R5.LiNE.x264.300mb.V2.704x288.TEAM_DAYN.part2.rar
    HF:

    Code:
    http://hotfile.com/dl/33586501/c0040ca/Legion.R5.LiNE.x264.300mb.V2.704x288.TEAM_DAYN.part1.rar.html
    http://hotfile.com/dl/33586504/291b190/Legion.R5.LiNE.x264.300mb.V2.704x288.TEAM_DAYN.part2.rar.html
    Enjoy!
     
  2. szykmon2

    szykmon2 Guest

    30 views and no thanks?
     
  3. bigpoint

    bigpoint Guest

    thankssss
     
  4. midnite

    midnite Guest

    Thanks
     
  5. Yder2dedrma

    Yder2dedrma Guest

    "Thank you"!!! :yes: :bye:
     
  6. szykmon2

    szykmon2 Guest

    Welcome :)
     
  7. nowaf mj

    nowaf mj Guest

    Thanks bro.
     
  8. majicmick

    majicmick Guest

    Can Anyone Verify The Audio In This Version? Does It Also Have A Brief Minute or So Of Russian Audio At Last 20 Minutes Of Movie?
     
  9. dino5553

    dino5553 Guest

    good thx
     
  10. mademan3

    mademan3 New Member

    Joined:
    Mar 3, 2012
    Messages:
    0
    Likes Received:
    1
    Trophy Points:
    0
    Thank you
     
  11. rombirrable

    rombirrable New Member

    Joined:
    Sep 25, 2012
    Messages:
    0
    Likes Received:
    0
    Trophy Points:
    0
    Thank"s........
     

Share This Page