Love and Magnets / Les aimants (2004)

Discussion in 'Archive' started by llanes13, Oct 25, 2009.

  1. llanes13

    llanes13 Guest

    [​IMG]


    Code:
    http://www.imdb.com/title/tt0409673/
    Code:
    Rating: 7.2/10 (368 votes)
    Runtime: 91
    Language: French (English soft subs)
    Country: Canada
    Color: Color
    
    Code:
    
    Avi details:
    General
    Format : AVI
    File size : 1.46 GiB
    Duration : 1h 31mn
    
    Video
    ID : 0
    Format : MPEG-4 Visual
    Format profile : AdvancedSimple@L5
    Format settings, BVOP : Yes
    Format settings, QPel : No
    Format settings, GMC : No warppoints
    Format settings, Matrix : Default (H.263)
    Muxing mode : Packed bitstream
    Codec ID : XVID
    Codec ID/Hint : XviD
    Bit rate : 1 721 Kbps
    Width : 720 pixels
    Height : 416 pixels
    Display aspect ratio : 16:9
    Frame rate : 23.976 fps
    Resolution : 24 bits
    Colorimetry : 4:2:0
    Scan type : Progressive
    Bits/(Pixel*Frame) : 0.240
    Stream size : 1.09 GiB (75%)
    Writing library : XviD 1.2.0.dev47 (UTC 2006-11-01)
    
    Audio #1
    ID : 1
    Format : AC-3
    Format/Info : Audio Coding 3
    Bit rate mode : Constant
    Bit rate : 448 Kbps
    Channel(s) : 6 channels
    Channel positions : Front: L C R, Surround: L R, LFE
    Sampling rate : 48.0 KHz
    Stream size : 292 MiB (20%)
    Alignment : Split accross interleaves
    Interleave, duration : 83 ms (2.00 video frames)
    Interleave, preload duration : 500 ms
    
    Audio #2
    ID : 2
    Format : MPEG Audio
    Format version : Version 1
    Format profile : Layer 3
    Codec ID/Hint : MP3
    Bit rate mode : Variable
    Bit rate : 109 Kbps
    Nominal bit rate : 128 Kbps
    Channel(s) : 2 channels
    Sampling rate : 48.0 KHz
    Resolution : 16 bits
    Stream size : 71.3 MiB (5%)
    Alignment : Aligned on interleaves
    Interleave, duration : 24 ms (0.58 video frame)
    Interleave, preload duration : 568 ms
    Writing library : LAME3.97
    Encoding settings : -m j -V 4 -q 2 -lowpass 17 --abr 128
    
    
    Code:
    http://www.megaupload.com/?d=AMK7X2IB
    http://www.megaupload.com/?d=AHM5TWXC
    http://www.megaupload.com/?d=EVTXXORE
    http://www.megaupload.com/?d=IASN3XB4
    http://www.megaupload.com/?d=QJYKWD3N
    http://www.megaupload.com/?d=JPNQ5DP1
    http://www.megaupload.com/?d=F8B602GR
    http://www.megaupload.com/?d=VG0WJ6X0
    
    Rar Password: None
    
    
    

    [​IMG]

    [​IMG]

    [​IMG]
     

Share This Page