Machine Gun Preacher 2011 BRRiP AC3 XViD - INSPiRAL

Discussion in '2011 Movies' started by RMTeam, Mar 3, 2012.

  1. RMTeam

    RMTeam Active Member

    Joined:
    Feb 18, 2012
    Messages:
    4,485
    Likes Received:
    2
    Trophy Points:
    38
    Machine Gun Preacher 2011 BRRiP AC3 XViD - INSPiRAL

    [​IMG]

    Machine Gun Preacher (2011)
    Genre: Action | Biography | Crime
    Directed By: Marc Forster
    Cast: Gerard Butler, Michelle Monaghan, Kathy Baker
    MPAA Rate: R
    Storyline: The story of Sam Childers, a former drug-dealing biker tough guy who found God and became a crusader for hundreds of Sudanese children who've been forced to become soldiers.

    Code:
        IMDB Rate: 6.5
        IMDB: http://www.imdb.com/title/tt1586752/
    SOURCES:

    VIDEO - MOOVEE THANKS
    AUDIO - MOOVEE THANKS
    SUBS - When needed

    STATS:

    Video
    ID : 0
    Format : MPEG-4 Visual
    Format profile : Advanced Simple@L5
    Format settings, BVOP : 2
    Format settings, QPel : No
    Format settings, GMC : No warppoints
    Format settings, Matrix : Default (MPEG)
    Muxing mode : Packed bitstream
    Codec ID : XVID
    Codec ID/Hint : XviD
    Duration : 2h 8mn
    Bit rate : 2 337 Kbps
    Width : 720 pixels
    Height : 304 pixels
    Display aspect ratio : 2.35:1
    Frame rate : 23.976 fps
    Color space : YUV
    Chroma subsampling : 4:2:0
    Bit depth : 8 bits
    Scan type : Progressive
    Compression mode : Lossy
    Bits/(Pixel*Frame) : 0.445
    Stream size : 2.10 GiB (84%)
    Writing library : XviD 64

    Audio
    ID : 1
    Format : AC-3
    Format/Info : Audio Coding 3
    Mode extension : CM (complete main)
    Codec ID : 2000
    Duration : 2h 8mn
    Bit rate mode : Constant
    Bit rate : 448 Kbps
    Channel(s) : 6 channels
    Channel positions : Front: L C R, Side: L R, LFE
    Sampling rate : 48.0 KHz
    Bit depth : 16 bits
    Compression mode : Lossy
    Stream size : 413 MiB (16%)
    Alignment : Aligned on interleaves
    Interleave, duration : 42 ms (1.00 video frame)
    Interleave, preload duration : 512 ms



    DOWNLOAD
    Code:
    http://www.rarefile.net/ty2pzpkx3yur/m.g.p.2011.b.a3.x.i.u23366.RMTeam.part1.rar
    http://www.rarefile.net/ypkvpbnby7kj/m.g.p.2011.b.a3.x.i.u23366.RMTeam.part2.rar
    http://www.rarefile.net/cr8rsx0uhi2b/m.g.p.2011.b.a3.x.i.u23366.RMTeam.part3.rar
    http://www.rarefile.net/z221qoydcszi/m.g.p.2011.b.a3.x.i.u23366.RMTeam.part4.rar
    http://www.rarefile.net/tq8vj6ncx5sx/m.g.p.2011.b.a3.x.i.u23366.RMTeam.part5.rar
    http://www.rarefile.net/31tastbryijm/m.g.p.2011.b.a3.x.i.u23366.RMTeam.part6.rar
    [​IMG]

    [​IMG]

    [​IMG]
     

Share This Page