Machine Gun Preacher 2011 BRRip H264 AC3 - DTRG

Discussion in '2011 Movies' started by RMTeam, Mar 4, 2012.

  1. RMTeam

    RMTeam Active Member

    Joined:
    Feb 18, 2012
    Messages:
    4,485
    Likes Received:
    2
    Trophy Points:
    38
    Machine Gun Preacher 2011 BRRip H264 AC3 - DTRG

    [​IMG]

    Machine Gun Preacher (2011)
    Genre: Action | Biography | Crime
    Directed By: Marc Forster
    Cast: Gerard Butler, Michelle Monaghan, Kathy Baker
    MPAA Rate: R
    Storyline: The story of Sam Childers, a former drug-dealing biker tough guy who found God and became a crusader for hundreds of Sudanese children who've been forced to become soldiers.

    Code:
        IMDB Rate: 6.5
        IMDB: http://www.imdb.com/title/tt1586752/
    Complete name : Machine Gun Preacher 2011 BRRip H264 AC3 - DTRG.mkv
    Format : Matroska
    Format version : Version 2
    File size : 697 MiB
    Duration : 2h 8mn
    Overall bit rate : 757 Kbps
    Encoded date : UTC 2012-03-02 22:52:28
    Writing application : mkvmerge v5.2.1 ('A Far Off Place') built on Jan 2 2012 23:21:10
    Writing library : libebml v1.2.3 + libmatroska v1.3.0

    Video
    ID : 1
    Format : AVC
    Format/Info : Advanced Video Codec
    Format profile : High@L4.2
    Format settings, CABAC : Yes
    Format settings, ReFrames : 4 frames
    Codec ID : V_MPEG4/ISO/AVC
    Duration : 2h 8mn
    Bit rate : 627 Kbps
    Width : 720 pixels
    Height : 304 pixels
    Display aspect ratio : 2.35:1
    Frame rate : 23.976 fps
    Color space : YUV
    Chroma subsampling : 4:2:0
    Bit depth : 8 bits
    Scan type : Progressive
    Bits/(Pixel*Frame) : 0.119
    Stream size : 565 MiB (81%)
    Writing library : x264 core 120 r2146 bcd41db
    Language : English
    Default : Yes
    Forced : No
    Source : 720p, thanks mate...

    Audio
    ID : 2
    Format : AC-3
    Format/Info : Audio Coding 3
    Mode extension : CM (complete main)
    Codec ID : A_AC3
    Duration : 2h 8mn
    Bit rate mode : Constant
    Bit rate : 128 Kbps
    Channel(s) : 2 channels
    Channel positions : Front: L R
    Sampling rate : 48.0 KHz
    Bit depth : 16 bits
    Compression mode : Lossy
    Stream size : 118 MiB (17%)
    Default : Yes
    Forced : No
    Source : 720p, thanks mate...



    DOWNLOAD
    Code:
    http://www.rarefile.net/mmzoby5ri0kk/m.g.p.2011.b.h264.a3.d.u23394.RMTeam.rar
    [​IMG]

    [​IMG]

    [​IMG]
     
  2. shafigh_red

    shafigh_red New Member

    Joined:
    Oct 14, 2012
    Messages:
    1
    Likes Received:
    0
    Trophy Points:
    1
    Thanks Man
     

Share This Page