Machine Gun Preacher (2011)-DVDRIp Xvid-*THC*

Discussion in '2011 Movies' started by RMTeam, Mar 2, 2012.

  1. RMTeam

    RMTeam Active Member

    Joined:
    Feb 18, 2012
    Messages:
    4,485
    Likes Received:
    2
    Trophy Points:
    38
    [​IMG]

    Machine Gun Preacher (2011)
    Genre: Action | Biography | Crime
    Directed By: Marc Forster
    Cast: Gerard Butler, Michelle Monaghan, Kathy Baker
    MPAA Rate: R
    Storyline: The story of Sam Childers, a former drug-dealing biker tough guy who found God and became a crusader for hundreds of Sudanese children who've been forced to become soldiers.


    Code:
        IMDB Rate: 6.5
        IMDB: http://www.imdb.com/title/tt1586752/

    General
    Format : AVI
    Format/Info : Audio Video Interleave
    File size : 1.40 GiB
    Duration : 2h 3mn
    Overall bit rate : 1 620 Kbps

    Video
    ID : 0
    Format : MPEG-4 Visual
    Format profile : Advanced Simple@L5
    Format settings, BVOP : 2
    Format settings, QPel : Yes
    Format settings, GMC : No warppoints
    Format settings, Matrix : Default (H.263)
    Codec ID : XVID
    Codec ID/Hint : XviD
    Duration : 2h 3mn
    Bit rate : 1 164 Kbps
    Width : 720 pixels
    Height : 304 pixels
    Display aspect ratio : 2.35:1
    Frame rate : 25.000 fps
    Color space : YUV
    Chroma subsampling : 4:2:0
    Bit depth : 8 bits
    Scan type : Progressive
    Compression mode : Lossy
    Bits/(Pixel*Frame) : 0.213
    Stream size : 1.00 GiB (72%)
    Writing library : XviD 1.2.1 (UTC 2008-12-04)

    Audio
    ID : 1
    Format : AC-3
    Format/Info : Audio Coding 3
    Mode extension : CM (complete main)
    Codec ID : 2000
    Duration : 2h 3mn
    Bit rate mode : Constant
    Bit rate : 448 Kbps
    Channel(s) : 6 channels
    Channel positions : Front: L C R, Side: L R, LFE
    Sampling rate : 48.0 KHz
    Bit depth : 16 bits
    Compression mode : Lossy
    Stream size : 396 MiB (28%)
    Alignment : Aligned on interleaves
    Interleave, duration : 64 ms (1.60 video frames)
    Interleave, preload duration : 192 ms
    Title : VTS_01_1 T80 3_2ch 448Kbps DELAY 0ms_new



    DOWNLOAD
    Code:
    http://www.rarefile.net/icvayfks8ban/m.g.p.2011.d.xt.u23265.RMTeam.part1.rar
    http://www.rarefile.net/ezgnwrqox3e6/m.g.p.2011.d.xt.u23265.RMTeam.part2.rar
    http://www.rarefile.net/fbn97wwk72hd/m.g.p.2011.d.xt.u23265.RMTeam.part3.rar
    [​IMG]

    [​IMG]

    [​IMG]
     

Share This Page