NitroFlare+RedBunker Marvels Daredevil S02 Complete 1080p 5.1 Channels Webrip HEVC x265 RMTeam

Discussion in 'TV Series - Boxset' started by Sheriff, Mar 23, 2016.

  1. Sheriff

    Sheriff Administrator Staff Member

    Joined:
    Feb 18, 2012
    Messages:
    42,252
    Likes Received:
    1,419
    Trophy Points:
    113
    [​IMG]

    Marvel's Daredevil: Season 2 (2016)
    A blind lawyer fights crime by day in the courtroom and by night as a superhero with extraordinary senses in this adaptation of the Marvel Comics character Daredevil.

    Information:
    Code:
    TVRage:
    http://www.tvmaze.com/shows/1369/marvels-daredevil
    
    IMDb:
    http://www.imdb.com/title/tt3322312/
    
    Marvels Daredevil S02 Complete 1080p 5.1 Channels Webrip HEVC x265 RMTeam

    [​IMG]
    Code:
    http://nitroflare.com/view/7AF66CF7FEDED95/marvels.daredevil.s02e01.1080p.webrip.hevc.x265.rmteam.mkv
    http://nitroflare.com/view/0692AADA93AF7AE/marvels.daredevil.s02e02.1080p.webrip.hevc.x265.rmteam.mkv
    http://nitroflare.com/view/9EEFE08D94ABB16/marvels.daredevil.s02e03.1080p.webrip.hevc.x265.rmteam.mkv
    http://nitroflare.com/view/7E3F6E01178ED61/marvels.daredevil.s02e04.1080p.webrip.hevc.x265.rmteam.mkv
    http://nitroflare.com/view/FA9464BD0871FD1/marvels.daredevil.s02e05.1080p.webrip.hevc.x265.rmteam.mkv
    http://nitroflare.com/view/2A9A1F482E644A2/marvels.daredevil.s02e06.1080p.webrip.hevc.x265.rmteam.mkv
    http://nitroflare.com/view/AEDF18A287F1F18/marvels.daredevil.s02e07.1080p.webrip.hevc.x265.rmteam.mkv
    http://nitroflare.com/view/A98661D64ADE60E/marvels.daredevil.s02e08.1080p.webrip.hevc.x265.rmteam.mkv
    http://nitroflare.com/view/FCADF1134D7E2ED/marvels.daredevil.s02e09.1080p.webrip.hevc.x265.rmteam.mkv
    http://nitroflare.com/view/EEB862BA6C396DE/marvels.daredevil.s02e10.1080p.webrip.hevc.x265.rmteam.mkv
    http://nitroflare.com/view/9C9C3719B5F3C43/marvels.daredevil.s02e11.1080p.webrip.hevc.x265.rmteam.mkv
    http://nitroflare.com/view/AE071A66FC57776/marvels.daredevil.s02e12.1080p.webrip.hevc.x265.rmteam.mkv
    http://nitroflare.com/view/984028FD55BFE90/marvels.daredevil.s02e13.1080p.webrip.hevc.x265.rmteam.mkv
    
    [​IMG]
    Code:
    http://www.redbunker.net/d6nr8clt9osm/marvels.daredevil.s02e01.1080p.webrip.hevc.x265.rmteam.mkv.html
    http://www.redbunker.net/ctnukqyp3kes/marvels.daredevil.s02e02.1080p.webrip.hevc.x265.rmteam.mkv.html
    http://www.redbunker.net/hv6guouvfptv/marvels.daredevil.s02e03.1080p.webrip.hevc.x265.rmteam.mkv.html
    http://www.redbunker.net/cerzulxzgn62/marvels.daredevil.s02e04.1080p.webrip.hevc.x265.rmteam.mkv.html
    http://www.redbunker.net/88di8ll7rbyk/marvels.daredevil.s02e05.1080p.webrip.hevc.x265.rmteam.mkv.html
    http://www.redbunker.net/pp9l2asj7ymi/marvels.daredevil.s02e06.1080p.webrip.hevc.x265.rmteam.mkv.html
    http://www.redbunker.net/29vja7nzl7jn/marvels.daredevil.s02e07.1080p.webrip.hevc.x265.rmteam.mkv.html
    http://www.redbunker.net/fn86znu7npl2/marvels.daredevil.s02e08.1080p.webrip.hevc.x265.rmteam.mkv.html
    http://www.redbunker.net/8tpg15pz78jz/marvels.daredevil.s02e09.1080p.webrip.hevc.x265.rmteam.mkv.html
    http://www.redbunker.net/b032wtvza146/marvels.daredevil.s02e10.1080p.webrip.hevc.x265.rmteam.mkv.html
    http://www.redbunker.net/ftlrrwdbrk4b/marvels.daredevil.s02e11.1080p.webrip.hevc.x265.rmteam.mkv.html
    http://www.redbunker.net/ff6ydwsgtn67/marvels.daredevil.s02e12.1080p.webrip.hevc.x265.rmteam.mkv.html
    http://www.redbunker.net/5pj1pjs6wm9a/marvels.daredevil.s02e13.1080p.webrip.hevc.x265.rmteam.mkv.html
    
    NFO:
    Code:
    Video
    ID : 1
    Format : HEVC
    Format/Info : High Efficiency Video Coding
    Format profile : Main@L4@Main
    Codec ID : V_MPEGH/ISO/HEVC
    Duration : 55mn 27s
    Bit rate : 1 235 Kbps
    Width : 1 920 pixels
    Height : 1 080 pixels
    Display aspect ratio : 16:9
    Frame rate mode : Variable
    Frame rate : 23.976 fps
    Color space : YUV
    Chroma subsampling : 4:2:0
    Bit depth : 8 bits
    Bits/(Pixel*Frame) : 0.025
    Stream size : 490 MiB (76%)
    Writing library : x265 1.9+15-425b583f25db:[Linux][GCC 5.3.1][64 bit] 8bit+10bit+12bit
    Encoding settings : wpp / ctu=64 / min-cu-size=8 / max-tu-size=32 / tu-intra-depth=1 / tu-inter-depth=1 / me=1 / subme=2 / merange=57 / no-rect / no-amp / max-merge=2 / temporal-mvp / no-early-skip / rdpenalty=0 / no-tskip / no-tskip-fast / strong-intra-smoothing / no-lossless / no-cu-lossless / no-constrained-intra / no-fast-intra / open-gop / no-temporal-layers / interlace=0 / keyint=250 / min-keyint=23 / scenecut=40 / rc-lookahead=20 / lookahead-slices=6 / bframes=4 / bframe-bias=0 / b-adapt=2 / ref=3 / limit-refs=3 / no-limit-modes / weightp / no-weightb / aq-mode=1 / qg-size=32 / aq-strength=1.00 / cbqpoffs=0 / crqpoffs=0 / rd=3 / psy-rd=2.00 / rdoq-level=0 / psy-rdoq=0.00 / no-rd-refine / signhide / deblock / sao / no-sao-non-deblock / b-pyramid / cutree / no-intra-refresh / rc=crf / crf=24.0 / qcomp=0.60 / qpmin=0 / qpmax=51 / qpstep=4 / ipratio=1.40 / pbratio=1.30
    Language : English
    Default : Yes
    Forced : No
    
    Audio
    ID : 2
    Format : AAC
    Format/Info : Advanced Audio Codec
    Format profile : LC
    Codec ID : A_AAC
    Duration : 55mn 27s
    Bit rate : 384 Kbps
    Channel(s) : 6 channels
    Channel positions : Front: L C R, Side: L R, LFE
    Sampling rate : 48.0 KHz
    Frame rate : 46.875 fps (1024 spf)
    Compression mode : Lossy
    Stream size : 152 MiB (24%)
    Writing library : Lavc57.24.102 aac
    Language : English
    Default : Yes
    Forced : No
    
    Text
    ID : 3
    Format : UTF-8
    Codec ID : S_TEXT/UTF8
    Codec ID/Info : UTF-8 Plain Text
    Duration : 53mn 6s
    Bit rate : 73 bps
    Count of elements : 858
    Stream size : 28.5 KiB (0%)
    Language : English
    Default : No
    Forced : No
     
  2. rick71

    rick71 Redbunker Premium Account Holder

    Joined:
    Feb 26, 2012
    Messages:
    399
    Likes Received:
    355
    Trophy Points:
    63
    thanks again for all u do
     
    Sheriff likes this.

Share This Page