NitroFlare+RedBunker Marvels Jessica Jones (2015) S01 720p WEBRiP x264-FXviD

Discussion in 'TV Series - Boxset' started by Sheriff, Nov 22, 2015.

  1. Sheriff

    Sheriff Administrator Staff Member

    Joined:
    Feb 18, 2012
    Messages:
    42,251
    Likes Received:
    1,419
    Trophy Points:
    113
    [​IMG]

    Marvel's Jessica Jones: Season 1 (2015)
    A PTSD-stricken superhero hangs up her costume and opens her own detective agency in this superhero drama.

    Information:
    Code:
    TVRage:
    https://www.tvrage.com/jessica-jones
    
    IMDb:
    http://www.imdb.com/title/tt2357547/
    
    Marvels.Jessica.Jones.S01.Complete.720p.WEBRiP.x264-FXviD

    [​IMG]
    Code:
    Download from NITROFLARE
    http://nitroflare.com/view/B9E73FC09A8FEDA/Marvels.Jessica.Jones.S01E01.PROPER.720p.WEBRiP.x264-2HD.mkv
    http://nitroflare.com/view/E05C9DC0E2488FB/Marvels.Jessica.Jones.S01E02.PROPER.720p.WEBRiP.x264-QCF.mkv
    http://nitroflare.com/view/5CF005404150F0F/Marvels.Jessica.Jones.S01E03.720p.WEBRiP.x264-QCF.mkv
    http://nitroflare.com/view/ADB97438C83B9D6/Marvels.Jessica.Jones.S01E04.720p.WEBRiP.x264-2HD.mkv
    http://nitroflare.com/view/24FA34878550051/Marvels.Jessica.Jones.S01E05.720p.WEBRiP.x264-2HD.mkv
    http://nitroflare.com/view/66C8A2B084522BF/Marvels.Jessica.Jones.S01E06.720p.WEBRiP.x264-QCF.mkv
    http://nitroflare.com/view/901479E6D7F9FCE/Marvels.Jessica.Jones.S01E07.720p.WEBRiP.x264-2HD.mkv
    http://nitroflare.com/view/A0A04DB76DE959A/Marvels.Jessica.Jones.S01E08.720p.WEBRiP.x264-2HD.mkv
    http://nitroflare.com/view/0EA2D58AC1E9399/Marvels.Jessica.Jones.S01E09.720p.WEBRiP.x264-2HD.mkv
    http://nitroflare.com/view/A0C1A0F77C48C0E/Marvels.Jessica.Jones.S01E10.720p.WEBRiP.x264-NOGRP.mkv
    http://nitroflare.com/view/1868EDDC41CC2B1/Marvels.Jessica.Jones.S01E11.720p.WEBRiP.x264-NOGRP.mkv
    http://nitroflare.com/view/2D92DFA7A1D719A/Marvels.Jessica.Jones.S01E12.720p.WEBRiP.x264-NOGRP.mkv
    http://nitroflare.com/view/A1ACD263CB05EE0/Marvels.Jessica.Jones.S01E13.720p.WEBRiP.x264-NOGRP.mkv
    
    [​IMG]
    Code:
    Download from REDBUNKER
    http://www.redbunker.net/831yaypd7w13/Marvels.Jessica.Jones.S01E01.PROPER.720p.WEBRiP.x264-2HD.mkv.html
    http://www.redbunker.net/tqfs1t8f8l2n/Marvels.Jessica.Jones.S01E02.PROPER.720p.WEBRiP.x264-QCF.mkv.html
    http://www.redbunker.net/9k922kkuc08f/Marvels.Jessica.Jones.S01E03.720p.WEBRiP.x264-QCF.mkv.html
    http://www.redbunker.net/6ftxvsy444cu/Marvels.Jessica.Jones.S01E04.720p.WEBRiP.x264-2HD.mkv.html
    http://www.redbunker.net/21zq5471llld/Marvels.Jessica.Jones.S01E05.720p.WEBRiP.x264-2HD.mkv.html
    http://www.redbunker.net/nyli0selipd3/Marvels.Jessica.Jones.S01E06.720p.WEBRiP.x264-QCF.mkv.html
    http://www.redbunker.net/ptzbq9btn98g/Marvels.Jessica.Jones.S01E07.720p.WEBRiP.x264-2HD.mkv.html
    http://www.redbunker.net/exta311sv9gv/Marvels.Jessica.Jones.S01E08.720p.WEBRiP.x264-2HD.mkv.html
    http://www.redbunker.net/dl4xv7rfnzrq/Marvels.Jessica.Jones.S01E09.720p.WEBRiP.x264-2HD.mkv.html
    http://www.redbunker.net/ugw3gbixikog/Marvels.Jessica.Jones.S01E10.720p.WEBRiP.x264-NOGRP.mkv.html
    http://www.redbunker.net/3g6eskbfjpzd/Marvels.Jessica.Jones.S01E11.720p.WEBRiP.x264-NOGRP.mkv.html
    http://www.redbunker.net/k9xn6ifv3ff5/Marvels.Jessica.Jones.S01E12.720p.WEBRiP.x264-NOGRP.mkv.html
    http://www.redbunker.net/ceso95v4jh8g/Marvels.Jessica.Jones.S01E13.720p.WEBRiP.x264-NOGRP.mkv.html
    
    NFO:

    Code:
    [Format]: MKV
    [Resolution]: 720p WEBHD
    [Display aspect ratio]: 16:9
    [Frame rate]: 23.976 fps
    
    [Media info]:
    
    Format                      : Matroska
    Format version              : Version 4 / Version 2
    File size                   : 1.28 GiB
    Duration                    : 51mn 54s
    Overall bit rate            : 3 537 Kbps
    Encoded date                : UTC 2015-11-20 18:18:15
    Writing application         : mkvmerge v8.4.0 ('A better way to fly') 64bit
    Writing library             : libebml v1.3.1 + libmatroska v1.4.2
    DURATION                    : 00:51:51.808000000
    NUMBER_OF_FRAMES            : 97244
    NUMBER_OF_BYTES             : 248944640
    _STATISTICS_WRITING_APP     : mkvmerge v8.4.0 ('A better way to fly') 64bit
    _STATISTICS_WRITING_DATE_UT : 2015-11-20 18:18:15
    _STATISTICS_TAGS            : BPS DURATION NUMBER_OF_FRAMES NUMBER_OF_BYTES
    
    Video
    ID                          : 1
    Format                      : AVC
    Format/Info                 : Advanced Video Codec
    Format profile              : High@L4.1
    Format settings, CABAC      : Yes
    Format settings, ReFrames   : 5 frames
    Codec ID                    : V_MPEG4/ISO/AVC
    Duration                    : 51mn 54s
    Bit rate                    : 2 826 Kbps
    Width                       : 1 280 pixels
    Height                      : 720 pixels
    Display aspect ratio        : 16:9
    Frame rate mode             : Constant
    Frame rate                  : 23.976 fps
    Color space                 : YUV
    Chroma subsampling          : 4:2:0
    Bit depth                   : 8 bits
    Scan type                   : Progressive
    Bits/(Pixel*Frame)          : 0.128
    Stream size                 : 1.02 GiB (80%)
    Writing library             : x264 core 148 r2638 7599210
    Encoding settings           : cabac=1 / ref=5 / deblock=1:0:0 / analyse=0x3:0x113 / me=umh / subme=8 / psy=1 / psy_rd=1.00:0.00 / mixed_ref=1 / me_range=16 / chroma_me=1 / trellis=1 / 8x8dct=1 / cqm=0 / deadzone=21,11 / fast_pskip=1 / chroma_qp_offset=-2 / threads=12 / lookahead_threads=2 / sliced_threads=0 / nr=0 / decimate=1 / interlaced=0 / bluray_compat=0 / constrained_intra=0 / bframes=3 / b_pyramid=2 / b_adapt=2 / b_bias=0 / direct=3 / weightb=1 / open_gop=0 / weightp=2 / keyint=250 / keyint_min=23 / scenecut=40 / intra_refresh=0 / rc_lookahead=50 / rc=crf / mbtree=1 / crf=18.0 / qcomp=0.60 / qpmin=0 / qpmax=69 / qpstep=4 / ip_ratio=1.40 / aq=1:1.00
    Language                    : English
    Default                     : Yes
    Forced                      : No
    Color range                 : Limited
    
    Audio
    ID                          : 2
    Format                      : AC-3
    Format/Info                 : Audio Coding 3
    Mode extension              : CM (complete main)
    Format settings, Endianness : Big
    Codec ID                    : A_AC3
    Duration                    : 51mn 54s
    Bit rate mode               : Constant
    Bit rate                    : 640 Kbps
    Channel(s)                  : 6 channels
    Channel positions           : Front: L C R, Side: L R, LFE
    Sampling rate               : 48.0 KHz
    Compression mode            : Lossy
    Stream size                 : 238 MiB (18%)
    Default                     : Yes
    Forced                      : No
     

Share This Page