Neverland 2011 BRRip XviD Ac3 Feel-Free

Discussion in '2011 Movies' started by RMTeam, Mar 2, 2012.

  1. RMTeam

    RMTeam Active Member

    Joined:
    Feb 18, 2012
    Messages:
    4,485
    Likes Received:
    2
    Trophy Points:
    38
    Neverland 2011 BRRip XviD Ac3 Feel-Free

    [​IMG]

    Neverland (2011)
    Genre: Adventure | Fantasy
    Directed By: Nick Willing
    Cast: Rhys Ifans, Anna Friel, Charles Dance
    Storyline: Raised on the streets of turn-of-the century London, orphaned Peter and his pals survive by their fearless wits as cunning young pickpockets...

    Code:
        IMDB Rate: 6.4
        IMDB: http://www.imdb.com/title/tt1720619/
    Codec ID/Hint : XviD
    Duration : 1h 25mn
    Bit rate : 1 242 Kbps
    Width : 640 pixels
    Height : 360 pixels
    Display aspect ratio : 16:9
    Frame rate : 23.976 fps
    Color space : YUV
    Chroma subsampling : 4:2:0
    Bit depth : 8 bits
    Scan type : Progressive
    Compression mode : Lossy
    Bits/(Pixel*Frame) : 0.225
    Stream size : 759 MiB (73%)
    Writing library : XviD 1.2.1 (UTC 2008-12-04)

    Audio
    ID : 1
    Format : AC-3
    Format/Info : Audio Coding 3
    Mode extension : CM (complete main)
    Codec ID : 2000
    Duration : 1h 25mn
    Bit rate mode : Constant
    Bit rate : 448 Kbps
    Channel(s) : 6 channels
    Channel positions : Front: L C R, Side: L R, LFE
    Sampling rate : 48.0 KHz
    Bit depth : 16 bits
    Compression mode : Lossy
    Stream size : 274 MiB (26%)
    Alignment : Aligned on interleaves
    Interleave, duration : 42 ms (1.00 video frame)
    Interleave, preload duration : 512 ms


    DOWNLOAD
    Code:
    http://www.rarefile.net/677uv0scn657/n.2011.p1.bx.a3.ff.u23232.f1.RMTeam.part1.rar
    http://www.rarefile.net/jslr483w1ihi/n.2011.p1.bx.a3.ff.u23232.f1.RMTeam.part2.rar
    http://www.rarefile.net/k3mmu8fzqanz/n.2011.p1.bx.a3.ff.u23232.f1.RMTeam.part3.rar
    http://www.rarefile.net/pbhzpafnl6yt/n.2011.p2.bx.a3.ff.u23232.f2.RMTeam.part1.rar
    http://www.rarefile.net/9gdp5vsejbla/n.2011.p2.bx.a3.ff.u23232.f2.RMTeam.part2.rar
    http://www.rarefile.net/h4ebnbtnsjt8/n.2011.p2.bx.a3.ff.u23232.f2.RMTeam.part3.rar
    [​IMG]

    [​IMG]

    [​IMG]
     

Share This Page