Neverland 2011 BRRiP XviD-SiC

Discussion in '2011 Movies' started by RMTeam, Mar 2, 2012.

  1. RMTeam

    RMTeam Active Member

    Joined:
    Feb 18, 2012
    Messages:
    4,485
    Likes Received:
    2
    Trophy Points:
    38
    [​IMG]

    Neverland (2011)
    Genre: Adventure | Fantasy
    Directed By: Nick Willing
    Cast: Rhys Ifans, Anna Friel, Charles Dance
    Storyline: Raised on the streets of turn-of-the century London, orphaned Peter and his pals survive by their fearless wits as cunning young pickpockets...

    Code:
        IMDB Rate: 6.4
        IMDB: http://www.imdb.com/title/tt1720619/
    Format : AVI
    Format/Info : Audio Video Interleave
    File size : 702 MiB
    Duration : 1h 25mn
    Overall bit rate : 1 148 Kbps

    Video
    ID : 0
    Format : MPEG-4 Visual
    Format profile : Advanced Simple@L5
    Format settings, BVOP : 2
    Format settings, QPel : No
    Format settings, GMC : No warppoints
    Format settings, Matrix : Default (H.263)
    Muxing mode : Packed bitstream
    Codec ID : XVID
    Codec ID/Hint : XviD
    Duration : 1h 25mn
    Bit rate : 1 014 Kbps
    Width : 720 pixels
    Height : 400 pixels
    Display aspect ratio : 16:9
    Frame rate : 23.976 fps
    Color space : YUV
    Chroma subsampling : 4:2:0
    Bit depth : 8 bits
    Scan type : Progressive
    Compression mode : Lossy
    Bits/(Pixel*Frame) : 0.147
    Stream size : 620 MiB (88%)
    Writing library : XviD 62

    Audio
    ID : 1
    Format : MPEG Audio
    Format version : Version 1
    Format profile : Layer 3
    Mode : Joint stereo
    Codec ID : 55
    Codec ID/Hint : MP3
    Duration : 1h 25mn
    Bit rate mode : Constant
    Bit rate : 128 Kbps
    Channel(s) : 2 channels
    Sampling rate : 48.0 KHz
    Compression mode : Lossy
    Stream size : 78.2 MiB (11%)
    Alignment : Aligned on interleaves
    Interleave, duration : 167 ms (4.00 video frames)
    Interleave, preload duration : 216 ms
    Title : Neverland.2011.720p.Part1.BluRay.x264.DTS-HDChina - [2] English
    Writing library : LAME3.99r
    Encoding settings : -m j -V 4 -q 2 -lowpass 17 -b 128



    DOWNLOAD
    Code:
    http://www.rarefile.net/1octiwaq0uhv/p1.u23228.f1.RMTeam.rar
    http://www.rarefile.net/71dvrcdv50gm/p2.u23228.f2.RMTeam.rar
    [​IMG]

    [​IMG]

    [​IMG]
     

Share This Page