Next Avengers: Heroes of Tomorrow (2008) DVDRip

Discussion in 'Cartoon-Animes' started by Prohibitive, Mar 30, 2015.

  1. Prohibitive

    Prohibitive Administrator Staff Member

    Joined:
    Nov 3, 2013
    Messages:
    2,157
    Likes Received:
    95
    Trophy Points:
    48
    Gender:
    Male
    Next Avengers: Heroes of Tomorrow (2008) DVDRip

    IMDb: http://www.imdb.com/title/tt1259998

    [​IMG]


    General
    Complete name : Next Avengers Heroes of Tomorrow (2008).avi
    Format : AVI
    Format/Info : Audio Video Interleave
    File size : 701 MiB
    Duration : 1h 18mn
    Overall bit rate : 1 256 Kbps
    Writing application : VirtualDubMod 1.5.10.1 (build 2366/release)
    Writing library : VirtualDubMod build 2366/release

    Video
    ID : 0
    Format : MPEG-4 Visual
    Format profile : Advanced Simple@L5
    Format settings, BVOP : 2
    Format settings, QPel : No
    Format settings, GMC : No warppoints
    Format settings, Matrix : Default (H.263)
    Codec ID : DX50
    Codec ID/Hint : DivX 5
    Duration : 1h 18mn
    Bit rate : 1 087 Kbps
    Width : 660 pixels
    Height : 360 pixels
    Display aspect ratio : 1.85:1
    Frame rate : 23.976 fps
    Color space : YUV
    Chroma subsampling : 4:2:0
    Bit depth : 8 bits
    Scan type : Progressive
    Compression mode : Lossy
    Bits/(Pixel*Frame) : 0.191
    Stream size : 607 MiB (87%)
    Writing library : XviD 1.0.3 (UTC 2004-12-20)

    Audio
    ID : 1
    Format : MPEG Audio
    Format version : Version 1
    Format profile : Layer 3
    Codec ID : 55
    Codec ID/Hint : MP3
    Duration : 1h 18mn
    Bit rate mode : Constant
    Bit rate : 160 Kbps
    Channel(s) : 2 channels
    Sampling rate : 48.0 KHz
    Compression mode : Lossy
    Stream size : 89.3 MiB (13%)
    Alignment : Aligned on interleaves
    Interleave, duration : 42 ms (1.00 video frame)
    Interleave, preload duration : 504 ms

    [​IMG]

    Next Avengers Heroes of Tomorrow (2008).avi - 701.4 MB
     

Share This Page