NHNZ – Animal Inventors Series 1 (2001)

Discussion in 'Applications' started by BetterRhyme, Aug 16, 2012.

  1. BetterRhyme

    BetterRhyme Guest

    Divxturka.net is using Netload! Because Netload is better than Rapidshare,Hotfile and xxxxxxxx.to ! Click here and buy Netload premium account!

    [​IMG]
    NHNZ – Animal Inventors Series 1 (2001) | 1.81 GB

    Innovations from the animal world in the seemingly “human” realms of science, medicine, technology and more


    Animal Inventors 1: Animal Engineers
    Synopsis:
    Animal Inventors: Animal Engineers explores the design principles upon which the natural world has been built, and looks at parallels in the human world. We’re just beginning to see nature as a vast untapped reservoir of animal inventions and engineering solutions – and discovering that our technological advances are not as remarkable as we like to think.

    Animal Inventors 2: Animal Magicians
    Synopsis:
    Could an eye of newt and the toe of frog really have given witches their magical powers? Some modern witch doctors think so, which is why they’re focusing on the chemicals found inside animals. Animal Inventors: Animal Magicians is an incredible journey from witchcraft to space exploration in search of scientific reasons for the supernatural powers of animals.

    Animal Inventors 3: Animal IT
    Synopsis:
    The next generation of robots may be endowed with super-senses taken straight from nature. Are we about to enter a new era of machines that think like animals? Animal Inventors: Animal IT explores the world of animal sense and intelligence, and finds that human roboticists are turning to animals for inspiration in building the coming generation of intelligent machines.

    Typical Technical Specs.:

    Complete name :NHNZ Animal Inventors Series 1 (2001)\animal engineers.avi
    Format : AVI
    Format/Info : Audio Video Interleave
    File size : 600 MiB
    Duration : 50mn 9s
    Overall bit rate : 1 672 Kbps

    Video
    ID : 0
    Format : MPEG-4 Visual
    Format profile : Simple@L3
    Format settings, BVOP : No
    Format settings, QPel : No
    Format settings, GMC : No warppoints
    Format settings, Matrix : Default (H.263)
    Codec ID : XVID
    Codec ID/Hint : XviD
    Duration : 50mn 9s
    Bit rate : 1 499 Kbps
    Width : 704 pixels
    Height : 460 pixels
    Display aspect ratio : 1.632
    frame rate : 25.000 fps
    Color space : YUV
    Chroma subsampling : 4:2:0
    Bit depth : 8 bits
    Scan type : Progressive
    Compression mode : Lossy
    Bits/(Pixel*frame) : 0.185
    Stream size : 538 MiB (90%)
    Writing library : XviD 1.1.2 (UTC 2006-11-01)

    Audio
    ID : 1
    Format : MPEG Audio
    Format version : Version 1
    Format profile : Layer 3
    Mode : Joint stereo
    Mode extension : MS Stereo
    Codec ID : 55
    Codec ID/Hint : MP3
    Duration : 50mn 9s
    Bit rate mode : Constant
    Bit rate : 160 Kbps
    Channel(s) : 2 channels
    Sampling rate : 48.0 KHz
    Compression mode : Lossy
    Stream size : 57.4 MiB (10%)
    Alignment : Split accross interleaves
    Interleave, duration : 24 ms (0.60 video frame)
    Interleave, preload duration : 965 ms

    [​IMG]

    (Get an Premium Account Netload.in for Faster & Unlimited download, with NO waiting time !!)

    [​IMG]
    NETLOAD.in - FAST DOWNLOAD (Recommended)

    Code:
    http://www.netload.in/dateiMUT8EpDxK1/NHNZ.Animal.Inventors.Series.1.part2.rar.htm
    http://www.netload.in/dateiIYPTjmanFZ/NHNZ.Animal.Inventors.Series.1.part1.rar.htm
     

Share This Page