Night of the Living Dead Re-Animation 2012 BRRIP XVID AC3 - Xtreme Encode

Discussion in '2012 Movies' started by RMTeam, Mar 15, 2012.

  1. RMTeam

    RMTeam Active Member

    Joined:
    Feb 18, 2012
    Messages:
    4,485
    Likes Received:
    2
    Trophy Points:
    38
    Night of the Living Dead Re-Animation 2012 BRRIP XVID AC3 - Xtreme Encode

    [​IMG]

    Night of the Living Dead 3D: Re-Animation (2012)
    Genre: Horror
    Directed By: Jeff Broadstreet
    Cast: Andrew Divoff, Jeffrey Combs, Sarah Lieving
    Storyline: After inheriting the family mortuary, a pyrophobic mortician accidentally exposes hundreds of un-cremated bodies to toxic medical waste...


    DOWNLOAD
    Code:
    http://www.rarefile.net/nz1bpjteo0k0/n.o.t.l.d.r-a.2012.b.x.a3.x.e.u25086.RMTeam.part1.rar
    http://www.rarefile.net/4yd6mbastrs3/n.o.t.l.d.r-a.2012.b.x.a3.x.e.u25086.RMTeam.part2.rar
    http://www.rarefile.net/obfbkfai6fwy/n.o.t.l.d.r-a.2012.b.x.a3.x.e.u25086.RMTeam.part3.rar



    [​IMG]

    [​IMG]

    [​IMG]

    Complete name : Night of the Living Dead Re-Animation 2012 BRRIP XVID AC3 - Xtreme Encode.avi
    Format : AVI
    Format/Info : Audio Video Interleave
    File size : 1.46 GiB
    Duration : 1h 32mn
    Overall bit rate : 2 264 Kbps

    Video


    ID : 0
    Format : MPEG-4 Visual
    Format profile : Advanced Simple@L5
    Format settings, BVOP : 1
    Format settings, QPel : No
    Format settings, GMC : No warppoints
    Format settings, Matrix : Default (H.263)
    Codec ID : XVID
    Codec ID/Hint : XviD
    Duration : 1h 32mn
    Bit rate : 1 808 Kbps
    Width : 720 pixels
    Height : 400 pixels
    Display aspect ratio : 16:9
    Frame rate : 23.976 fps
    Color space : YUV
    Chroma subsampling : 4:2:0
    Bit depth : 8 bits
    Scan type : Progressive
    Compression mode : Lossy
    Bits/(Pixel*Frame) : 0.262
    Stream size : 1.16 GiB (80%)




    Audio


    ID : 1
    Format : AC-3
    Format/Info : Audio Coding 3
    Mode extension : CM (complete main)
    Codec ID : 2000
    Duration : 1h 32mn
    Bit rate mode : Constant
    Bit rate : 448 Kbps
    Channel(s) : 6 channels
    Channel positions : Front: L C R, Side: L R, LFE
    Sampling rate : 48.0 KHz
    Bit depth : 16 bits
    Compression mode : Lossy
    Stream size : 295 MiB (20%)
    Alignment : Aligned on interleaves
    Interleave, duration : 64 ms (1.53 video frames)
    Interleave, preload duration : 192 ms
     
  2. VIRUS_666

    VIRUS_666 New Member

    Joined:
    Mar 4, 2012
    Messages:
    25
    Likes Received:
    0
    Trophy Points:
    1
    Great Post Many Thanks To Ya
     

Share This Page