Nine Dead (2010) DVDRip

Discussion in 'Archive' started by sraczka21, Apr 12, 2010.

  1. sraczka21

    sraczka21 Guest

    Nine Dead.DVDRip.XviD-ViSiON
    [​IMG]

    [​IMG]
    Code:
    Format : AVI
    Format/Info : Audio Video Interleave
    File size : 706 MiB
    Duration : 1h 26mn
    Overall bit rate : 1 142 Kbps
    
    Video
    ID : 0
    Format : MPEG-4 Visual
    Format profile : Simple@L3
    Format settings, BVOP : No
    Format settings, QPel : No
    Format settings, GMC : No warppoints
    Format settings, Matrix : Default (H.263)
    Codec ID : XVID
    Codec ID/Hint : XviD
    Duration : 1h 26mn
    Bit rate : 1 001 Kbps
    Width : 700 pixels
    Height : 320 pixels
    Display aspect ratio : 2.2:1
    Frame rate : 23.976 fps
    Resolution : 8 bits
    Colorimetry : 4:2:0
    Scan type : Progressive
    Bits/(Pixel*Frame) : 0.186
    Stream size : 619 MiB (88%)
    Writing library : XviD 1.1.2 (UTC 2006-11-01)
    
    Audio
    ID : 1
    Format : MPEG Audio
    Format version : Version 1
    Format profile : Layer 3
    Mode : Joint stereo
    Format_Settings_ModeExtension : MS Stereo
    Codec ID : 55
    Codec ID/Hint : MP3
    Duration : 1h 26mn
    Bit rate mode : Constant
    Bit rate : 128 Kbps
    Channel(s) : 2 channels
    Sampling rate : 48.0 KHz
    Stream size : 79.2 MiB (11%)
    Alignment : Split accross interleaves
    Interleave, duration : 24 ms (0.58 video frame)
    Interleave, preload duration : 689 ms
    Code:
    Communication is the key to the survival for nine strangers who have been kidnapped by a masked gunman and told that one of them will die every ten minutes until they discover how they are all connected. Who of the nine lives and who dies?
    [​IMG]
    [​IMG]
    [​IMG]
    [​IMG]
    [​IMG]
    [​IMG]
    [​IMG]


    [​IMG]
    - Upload on HF.Premium Account
    - My upload
    - Add Recovery Record 10%
    - No password
    - No CRC error
    - Awesome upload

    Code:
    http://hotfile.com/dl/36801955/4d91b05/ded.Mentor07.BP.part1.rar.html
    http://hotfile.com/dl/36801965/c30208f/ded.Mentor07.BP.part2.rar.html
    http://hotfile.com/dl/36801946/ff520f6/ded.Mentor07.BP.part3.rar.html
    http://hotfile.com/dl/36801938/b61a6cd/ded.Mentor07.BP.part4.rar.html
    
    If you download this movie using the above links, please take a few seconds to reply a "thanks".
    [​IMG]
     
  2. Cartácyrvs

    Cartácyrvs Guest

    Thanks you for your time.
    Downloading.
     
  3. sraczka21

    sraczka21 Guest

    Re-xxxxxxxx - [2010-04-12]
    [​IMG]


    [​IMG]
     
  4. sraczka21

    sraczka21 Guest

    Re-xxxxxxxx - [2010-04-15]
    [​IMG]
     
  5. banmar

    banmar Guest

    thank you
     
  6. sraczka21

    sraczka21 Guest

    Re-xxxxxxxx - [2010-04-15]
    [​IMG]
     
  7. Cartácyrvs

    Cartácyrvs Guest

    3 times downloaded. (4 files, 4 hours each)
    Every times and each one the same problem:
    "the first file error..!"
    Please upload it again. If u can.
    :lazy2:

    Or Admin... delete this post.
     
  8. sraczka21

    sraczka21 Guest

    every files are good! maybe you must update yours winRAR or 7zip?
     
  9. andromur

    andromur New Member

    Joined:
    Jan 5, 2014
    Messages:
    0
    Likes Received:
    0
    Trophy Points:
    0
    thanks for the share
     
  10. sraczka21

    sraczka21 Guest

    Re-xxxxxxxx - [2010-04-20]
    [​IMG]
     
  11. sraczka21

    sraczka21 Guest

    Re-xxxxxxxx - [2010-04-21]
    [​IMG]
     

Share This Page