No Tell Motel (2012)-DVDRIp Xvid-*THC*

Discussion in '2012 Movies' started by RMTeam, Oct 11, 2012.

  1. RMTeam

    RMTeam Active Member

    Joined:
    Feb 18, 2012
    Messages:
    4,485
    Likes Received:
    2
    Trophy Points:
    38
    No Tell Motel (2012)-DVDRIp Xvid-*THC*

    [​IMG]


    No Tell Motel (2012)
    Genre: Horror
    Directed By: Brett Donowho
    Cast: Chelsey Reist, Angel McCord, Johnny Hawkes
    Country: USA
    Original Language: English
    Storyline: Dirty little secrets are exposed when five friends become stranded at an abandoned motel haunted by a dark secret of its own.

    [​IMG]

    [​IMG]

    Format : AVI
    Format/Info : Audio Video Interleave
    File size : 1.98 GiB
    Duration : 1h 23mn
    Overall bit rate : 3 407 Kbps
    Writing library : VirtualDub build 32842/release

    Video
    ID : 0
    Format : MPEG-4 Visual
    Format profile : Advanced Simple@L5
    Format settings, BVOP : 2
    Format settings, QPel : Yes
    Format settings, GMC : No warppoints
    Format settings, Matrix : Default (H.263)
    Codec ID : XVID
    Codec ID/Hint : XviD
    Duration : 1h 23mn
    Bit rate : 2 950 Kbps
    Width : 720 pixels
    Height : 400 pixels
    Display aspect ratio : 16:9
    Frame rate : 23.976 fps
    Color space : YUV
    Chroma subsampling : 4:2:0
    Bit depth : 8 bits
    Scan type : Progressive
    Compression mode : Lossy
    Bits/(Pixel*Frame) : 0.427
    Stream size : 1.72 GiB (87%)
    Writing library : XviD 1.2.1 (UTC 2008-12-04)

    Audio
    ID : 1
    Format : AC-3
    Format/Info : Audio Coding 3
    Mode extension : CM (complete main)
    Format settings, Endianness : Big
    Codec ID : 2000
    Duration : 1h 23mn
    Bit rate mode : Constant
    Bit rate : 448 Kbps
    Channel(s) : 6 channels
    Channel positions : Front: L C R, Side: L R, LFE
    Sampling rate : 48.0 KHz
    Bit depth : 16 bits
    Compression mode : Lossy
    Stream size : 267 MiB (13%)
    Alignment : Split accross interleaves
    Interleave, duration : 42 ms (1.00 video frame)
    Interleave, preload duration : 500 ms




    [​IMG]

    Code:
    http://extabit.com/file/28wbpbr80i2nx/n.t.m.2012.d.xt.u63465.m.part1.rar
    http://extabit.com/file/28wbpbr7zvlil/n.t.m.2012.d.xt.u63465.m.part2.rar
    http://extabit.com/file/28wbpbr7w4qzh/n.t.m.2012.d.xt.u63465.m.part3.rar
    







    .
     

Share This Page