Notorious 2009 DVDRip XviD-TokIN

Discussion in 'Archive' started by darksidemon, Apr 2, 2009.

  1. darksidemon

    darksidemon Guest

    [​IMG]



    Code:
    Notorious.2009.DVDRip.Xvid.H0B4G.avi
    
    
    Format                           : AVI
    Format/Info                      : Audio Video Interleave
    File size                        : 1 001 MiB
    Duration                         : 2h 2mn
    Overall bit rate                 : 1 138 Kbps
    Movie name                       : Notorious
    Writing application              : MEncoder 2:1.0~rc2-0ubuntu13.1
    Writing library                  : MPlayer
    Original source form             : DVD ripped by acidrip.sf.net
    
    Video
    Format                           : MPEG-4 Visual
    Format profile                   : Streaming Video@L1
    Format settings, BVOP            : Yes
    Format settings, QPel            : No
    Format settings, GMC             : No warppoints
    Format settings, Matrix          : Default (MPEG)
    Codec ID                         : XVID
    Codec ID/Hint                    : XviD
    Duration                         : 2h 2mn
    Bit rate                         : 684 Kbps
    Width                            : 480 pixels
    Height                           : 202 pixels
    Display aspect ratio             : 2.35
    Frame rate                       : 29.970 fps
    Resolution                       : 24 bits
    Colorimetry                      : 4:2:0
    Scan type                        : Progressive
    Bits/(Pixel*Frame)               : 0.235
    Stream size                      : 602 MiB (60%)
    Writing library                  : XviD 1.1.2 (UTC 2006-11-01)
    
    Audio
    Format                           : AC-3
    Format/Info                      : Audio Coding 3
    Codec ID                         : 2000
    Duration                         : 2h 2mn
    Bit rate mode                    : Constant
    Bit rate                         : 448 Kbps
    Channel(s)                       : 6 channels
    Channel positions                : Front: L C R, Surround: L R, LFE
    Sampling rate                    : 48.0 KHz
    Resolution                       : 16 bits
    Stream size                      : 394 MiB (39%)
    Alignment                        : Split accross interleaves
    Interleave, duration             : 500 ms (14.98 video frames)
    Interleave, preload duration     : 500 ms
    
    
    have fun :p  
    


    [​IMG]


    [​IMG]
    [​IMG]




    [​IMG]




    Code:
    http://rapidshare.com/files/216708929/Notorious.2008.DVDRip.Xvid.H0B4G.part1.rar
    http://rapidshare.com/files/216710229/Notorious.2008.DVDRip.Xvid.H0B4G.part2.rar
    http://rapidshare.com/files/216710193/Notorious.2008.DVDRip.Xvid.H0B4G.part3.rar
    http://rapidshare.com/files/216709617/Notorious.2008.DVDRip.Xvid.H0B4G.part4.rar
    http://rapidshare.com/files/216710258/Notorious.2008.DVDRip.Xvid.H0B4G.part5.rar
    http://rapidshare.com/files/216708404/Notorious.2008.DVDRip.Xvid.H0B4G.part6.rar
    

    [​IMG]


    Code:
    http://netfolder.in/ExiUxzi/Notorious%202009%20DVDRip%20XviD-TokIN
    
     
  2. cheers mate
    [​IMG]
     
  3. GAP08

    GAP08 Guest

    thanks for sharing
     
  4. chitodejesus

    chitodejesus Guest

    Thanks
    CJ
     
  5. xtjaoi659

    xtjaoi659 New Member

    Joined:
    Feb 15, 2014
    Messages:
    0
    Likes Received:
    0
    Trophy Points:
    0
    thanks for sharing
     
  6. Wasltliz92

    Wasltliz92 New Member

    Joined:
    Apr 30, 2014
    Messages:
    0
    Likes Received:
    0
    Trophy Points:
    0
    thanks:heyo::heyo::triniti:
     
  7. cwcgfnkbvd

    cwcgfnkbvd New Member

    Joined:
    Oct 5, 2013
    Messages:
    0
    Likes Received:
    0
    Trophy Points:
    0
    Thanks for the share
     
  8. LoahparfaLm

    LoahparfaLm New Member

    Joined:
    Nov 1, 2012
    Messages:
    0
    Likes Received:
    0
    Trophy Points:
    0
    Occupation:
    Kazakhstan
    Location:
    Kazakhstan
    CHEERS

    :heyo::heyo::heyo:
     
  9. jmirish

    jmirish Guest

    Thanks
     
  10. gerrard

    gerrard Guest

    thanks mate,looking forward 2 this movie:sim12:
     
  11. Yder2dedrma

    Yder2dedrma Guest

    Many thanks!! :give_rose:
     
  12. rehman_ar62

    rehman_ar62 New Member

    Joined:
    Jan 25, 2014
    Messages:
    0
    Likes Received:
    0
    Trophy Points:
    0
    Home Page:
    Thanks been waiting for this.
     
  13. pasaa001

    pasaa001 New Member

    Joined:
    Oct 20, 2012
    Messages:
    0
    Likes Received:
    0
    Trophy Points:
    0
    thanks for the download.
     
  14. kristianrea

    kristianrea Guest

    :read: Thanks for this movie
     
  15. kristianrea

    kristianrea Guest

    This part is Missing
    Notorious.2008.DVDRip.Xvid.H0B4G.part7.rar
     
  16. low1

    low1 Guest

    thxs for the share:heyo:
     
  17. ricardo92

    ricardo92 Guest

    file 1 is contaminated
     
  18. Dsentman

    Dsentman Guest

    Thank you
     
  19. djtakin

    djtakin Guest

    :heyo::heyo::heyo::heyo::heyo:
     
  20. oldukmale

    oldukmale Guest

    thank you
     

Share This Page