One For The Money 2012 RC BDRip XVID AC3 HQ Hive-CM8

Discussion in '2012 Movies' started by RMTeam, Mar 4, 2012.

  1. RMTeam

    RMTeam Active Member

    Joined:
    Feb 18, 2012
    Messages:
    4,485
    Likes Received:
    2
    Trophy Points:
    38
    One For The Money 2012 RC BDRip XVID AC3 HQ Hive-CM8

    [​IMG]

    One for the Money (2012)
    Genre: Action | Comedy | Crime
    Directed By: Julie Anne Robinson
    Cast: Katherine Heigl, Jason O'Mara, Daniel Sunjata
    MPAA Rate: PG-13
    Storyline: Unemployed and newly-divorced Stephanie Plum lands a job at her cousin's bail-bond business, where her first assignment puts her on the trail of a wanted local cop from her romantic past.

    Code:
        IMDB Rate: 4.9
        IMDB: http://www.imdb.com/title/tt1598828/
    One.For.The.Money.2012.RC.BDRip.XVID.AC3.HQ.Hive-CM8


    Thx Hive

    CM8 Doing It Right The First Time

    Source: Russian Bluray
    Ochen.opasnaja.shtuchka

    Video: 720x304 @bitrate 1700 2pass
    Audio: English DTS to AC3 5.1 @384
    Sample: yes included


    Einmal ist keinmal (2012) - IMDb


    General
    Complete name : One.For.The.Money.2012.RC.BDRip.XVID.AC3.HQ.Hive-CM8.avi
    Format : AVI
    Format/Info : Audio Video Interleave
    File size : 1.33 GiB
    Duration : 1h 31mn
    Overall bit rate : 2 092 Kbps
    Writing application : Nandub v1.0rc2
    Writing library : Nandub build 1853/release

    Video
    ID : 0
    Format : MPEG-4 Visual
    Format profile : Advanced Simple@L5
    Format settings, BVOP : 1
    Format settings, QPel : Yes
    Format settings, GMC : No warppoints
    Format settings, Matrix : Default (H.263)
    Muxing mode : Packed bitstream
    Codec ID : XVID
    Codec ID/Hint : XviD
    Duration : 1h 31mn
    Bit rate : 1 699 Kbps
    Width : 720 pixels
    Height : 304 pixels
    Display aspect ratio : 2.40:1
    Frame rate : 23.976 fps
    Color space : YUV
    Chroma subsampling : 4:2:0
    Bit depth : 8 bits
    Scan type : Progressive
    Compression mode : Lossy
    Bits/(Pixel*Frame) : 0.324
    Stream size : 1.08 GiB (81%)
    Writing library : XviD 1.2.1 (UTC 2008-12-04)

    Audio
    ID : 1
    Format : AC-3
    Format/Info : Audio Coding 3
    Mode extension : CM (complete main)
    Codec ID : 2000
    Duration : 1h 31mn
    Bit rate mode : Constant
    Bit rate : 384 Kbps
    Channel(s) : 6 channels
    Channel positions : Front: L C R, Side: L R, LFE
    Sampling rate : 48.0 KHz
    Bit depth : 16 bits
    Compression mode : Lossy
    Stream size : 251 MiB (18%)
    Alignment : Split accross interleaves
    Interleave, duration : 42 ms (1.00 video frame)
    Interleave, preload duration : 500 ms


    DOWNLOAD
    Code:
    http://www.rarefile.net/r5asd4d04of3/oftm.2012.bx.a3.hh-c8.u23447.RMTeam.part1.rar
    http://www.rarefile.net/xl49jukivnma/oftm.2012.bx.a3.hh-c8.u23447.RMTeam.part2.rar
    http://www.rarefile.net/g9ln9kg2eutd/oftm.2012.bx.a3.hh-c8.u23447.RMTeam.part3.rar
    [​IMG]

    [​IMG]
     
  2. enick

    enick New Member

    Joined:
    Mar 7, 2012
    Messages:
    26
    Likes Received:
    0
    Trophy Points:
    1
    Occupation:
    Retired
    Location:
    Almost Heaven
    thanks for the share
     

Share This Page