Pandorum (2009) DVDRip - IMAGINE

Discussion in 'Archive' started by Kafeidg, Nov 11, 2009.

  1. Kafeidg

    Kafeidg New Member

    Joined:
    Aug 29, 2014
    Messages:
    0
    Likes Received:
    0
    Trophy Points:
    0
    Home Page:
    Pandorum (2009) DVDRip - IMAGINE


    [​IMG]

    [​IMG]


    Code:
    http://www.imdb.com/title/tt1188729/
    Code:
    #
    ::::::::::: ::::    ::::      :::      :::::::: ::::::::::: ::::    ::: ::::::::::
    #
                         :+:     +:+:+: :+:+:+   :+: :+:   :+:    :+:    :+:     :+:+:   :+: :+:        
    #
                         +:+     +:+ +:+:+ +:+  +:+   +:+  +:+           +:+     :+:+:+  +:+ +:+        
    #
                         +#+     +#+  +:+  +#+ +#++:++#++: :#:           +#+     +#+ +:+ +#+ +#++:++#  
    #
                         +#+     +#+       +#+ +#+     +#+ +#+   +#+#    +#+     +#+  +#+#+# +#+        
    #
                         #+#     #+#       #+# #+#     #+# #+#    #+#    #+#     #+#   #+#+# #+#        
    #
                     ########### ###       ### ###     ###  ######## ########### ###    #### ##########  
    #
                                                   
    #
     
    #
     
    #
     
    #
                              Another Fine Release Brought to you from - IMAGiNE                  
    #
                                                   
    #
       
    #
    ********************************************************************************************************************                                
    #
                                     Pandorum.2009.DVDRip - IMAGINE                                        
    #
    ********************************************************************************************************************
    #
     
    #
    Ripper ...........: IMAGiNE                                  IMDB Rating ......: 7.5/10   1,575 votes                            
    #
    Video Codec.......: XVID                                     Release Date......:25 September 2009 (USA)
    #
    Audio Codec.......:MP3                                       Theatre Date......:25 September 2009 (USA)
    #
    Audio Bitrate.....:192                                       Runtime.......:1h 43mn 36sec
    #
    Subtitles.........:NIL                                       Language..........:ENGLISH
    #
    Resolution...... 640 x 272                                   IMDb URL..........:http://www.imdb.com/title/tt1188729/
    #
     
    #
     
    #
    DETAILS:
    #
     
    #
    Video
    #
    Format                           : MPEG-4 Visual
    #
    Format profile                   : Streaming Video@L1
    #
    Format settings, BVOP            : Yes
    #
    Format settings, QPel            : No
    #
    Format settings, GMC             : No warppoints
    #
    Format settings, Matrix          : Custom
    #
    Muxing mode                      : Packed bitstream
    #
    Codec ID                         : XVID
    #
    Codec ID/Hint                    : XviD
    #
    Duration                         : 1h 43mn
    #
    Bit rate                         : 898 Kbps
    #
    Width                            : 640 pixels
    #
    Height                           : 272 pixels
    #
    Display aspect ratio             : 2.35
    #
    Frame rate                       : 25.000 fps
    #
    Resolution                       : 24 bits
    #
    Colorimetry                      : 4:2:0
    #
    Scan type                        : Progressive
    #
    Bits/(Pixel*Frame)               : 0.206
    #
    Stream size                      : 666 MiB (87%)
    #
    Writing library                  : XviD 1.2.1 (UTC 2008-12-04)
    #
     
    #
    Audio
    #
    Format                           : MPEG Audio
    #
    Format version                   : Version 1
    #
    Format profile                   : Layer 3
    #
    Codec ID                         : 55
    #
    Codec ID/Hint                    : MP3
    #
    Duration                         : 1h 43mn
    #
    Bit rate mode                    : Constant
    #
    Bit rate                         : 128 Kbps
    #
    Channel(s)                       : 2 channels
    #
    Sampling rate                    : 48.0 KHz
    #
    Resolution                       : 16 bits
    #
    Stream size                      : 94.9 MiB (12%)
    #
    Alignment                        : Split accross interleaves
    #
    Interleave, duration             : 40 ms (1.00 video frame)
    #
     
    #
     
    #
     
    #
    NOTES:
    #
     
    #
    IMAGiNE bringing you another release.....
    #
    The audio is our own audio....Enjoy!
    [​IMG]

    [​IMG]

    [​IMG]

    Sample

    Code:
    http://rapidshare.com/files/304445765/pandorumsample.avi
    Download

    Code:
    http://rapidshare.com/files/305292779/Pandorum.2009.DVDRip.IMAGINE.part1.rar
    http://rapidshare.com/files/305295565/Pandorum.2009.DVDRip.IMAGINE.part2.rar
    http://rapidshare.com/files/305296597/Pandorum.2009.DVDRip.IMAGINE.part3.rar
    http://rapidshare.com/files/305294957/Pandorum.2009.DVDRip.IMAGINE.part4.rar
     
  2. tc23

    tc23 New Member

    Joined:
    Dec 15, 2012
    Messages:
    0
    Likes Received:
    1
    Trophy Points:
    0
    Thanks man,looks cool...........
     
  3. Kafeidg

    Kafeidg New Member

    Joined:
    Aug 29, 2014
    Messages:
    0
    Likes Received:
    0
    Trophy Points:
    0
    Home Page:
    you are welcome
     
  4. aasnj3157p

    aasnj3157p New Member

    Joined:
    Nov 12, 2013
    Messages:
    0
    Likes Received:
    0
    Trophy Points:
    0
  5. aruba460

    aruba460 Guest

    Thanks
     
  6. wallywish

    wallywish Guest

    thank you
     
  7. Poisonman

    Poisonman Guest

    Thanks.
     
  8. CRV2002

    CRV2002 Guest

    thanks a lot
     
  9. batoni

    batoni Guest

    I've been waiting for this...thank you from the bottom of my heart!
     
  10. Midgard

    Midgard Guest

    thanks a lot for this one
     
  11. Goyax23

    Goyax23 Guest

    thanks
     
  12. Hybeacyclalty

    Hybeacyclalty New Member

    Joined:
    Mar 13, 2012
    Messages:
    0
    Likes Received:
    0
    Trophy Points:
    0
    Occupation:
    Yugoslavia
    Location:
    Yugoslavia
    Home Page:
    Awesome share. I'm glad more people are uploading 200MB RS links :)
     

Share This Page