Paranormal Activity 3 2011 Theatrical Cut DVDRip XviD-EXViD

Discussion in '2011 Movies' started by RMTeam, Mar 2, 2012.

  1. RMTeam

    RMTeam Active Member

    Joined:
    Feb 18, 2012
    Messages:
    4,485
    Likes Received:
    2
    Trophy Points:
    38
    Paranormal Activity 3 2011 Theatrical Cut DVDRip XviD-EXViD

    [​IMG]

    Paranormal Activity 3 (2011)
    Genre: Horror
    Directed By: Henry Joost, Ariel Schulman
    Cast: Christopher Nicholas Smith, Lauren Bittner, Chloe Csengery
    MPAA Rate: R
    Storyline: In 1988, young sisters Katie and Kristi befriend an invisible entity who resides in their home.

    Code:
        IMDB Rate: 6.1
        IMDB: http://www.imdb.com/title/tt1778304/
    Stats:
    Format: AVI
    Format/Info: Audio Video Interleave
    File size: 699 MiB
    Duration: 1h 20mn
    Overall bit rate: 1 212 Kbps
    Writing application: VirtualDubMod 1.5.10.2 (build 2540/release)
    Writing library: VirtualDubMod build 2540/release

    Video
    ID: 0
    Format: MPEG-4 Visual
    Format profile: Advanced Simple@L5
    Format settings, BVOP: Yes
    Format settings, QPel: No
    Format settings, GMC: No warppoints
    Format settings, Matrix: Default (H.263)
    Muxing mode: Packed bitstream
    Codec ID: XVID
    Codec ID/Hint: XviD
    Duration: 1h 20mn
    Bit rate: 1 024 Kbps
    Width: 624 pixels
    Height: 352 pixels
    Display aspect ratio: 16:9
    Frame rate: 25.000 fps
    Color space: YUV
    Chroma subsampling: 4:2:0
    Bit depth: 8 bits
    Scan type: Progressive
    Bits/(Pixel*Frame): 0.186
    Stream size: 591 MiB (85%)
    Writing library: XviD 62

    Audio
    ID: 1
    Format: MPEG Audio
    Format version: Version 1
    Format profile: Layer 3
    Mode: Joint stereo
    Mode extension: MS Stereo
    Codec ID: 55
    Codec ID/Hint: MP3
    Duration: 1h 20mn
    Bit rate mode: Variable
    Bit rate: 175 Kbps
    Nominal bit rate: 192 Kbps
    Channel(s): 2 channels
    Sampling rate: 48.0 KHz
    Stream size: 101 MiB (14%)
    Alignment: Aligned on interleaves
    Interleave, duration: 24 ms (0.60 video frame)
    Interleave, preload duration: 105 ms
    Writing library: LAME3.98r
    Encoding settings: -m j -V 4 -q 2 -lowpass 18.6 --abr 192

    DOWNLOAD
    Code:
    http://www.rarefile.net/lj6wdsuw8wqj/Paranormal_Activity_3_2011_Theatrical_Cut_DVDRip_XviD-EXViD.RMTeam.rar
    [​IMG]

    [​IMG]

    [​IMG]
     

Share This Page