Predators 2010 TS READNFO XViD - IMAGiNE

Discussion in 'Archive' started by Aeons, Jul 21, 2010.

  1. Aeons

    Aeons Guest

    Predators 2010 TS READNFO XViD - IMAGiNE
    No Password | My Upload | Single Extraction | 10% Recovery | Backup Files


    [​IMG]


    [​IMG]

    Code:
         *********** ****    ****      ***      ******** *********** ****    *** **********
              *+*     +*+*+* *+*+*+   *+* *+*   *+*    *+*    *+*     *+*+*   *+* *+*        
              +*+     +*+ +*+*+ +*+  +*+   +*+  +*+           +*+     *+*+*+  +*+ +*+        
              +$+     +$+  +*+  +$+ +$++*++$++* *$*           +$+     +$+ +*+ +$+ +$++*++$  
              +$+     +$+       +$+ +$+     +$+ +$+   +$+$    +$+     +$+  +$+$+$ +$+        
              $+$     $+$       $+$ $+$     $+$ $+$    $+$    $+$     $+$   $+$+$ $+$        
          $$$$$$$$$$$ $$$       $$$ $$$     $$$  $$$$$$$$ $$$$$$$$$$$ $$$    $$$$ $$$$$$$$$$     
                                                   
    
    
    
                              Another Fine Release Brought to you from - IMAGiNE                   
                                                    
    
    ********************************************************************************************************************                                
                                   Predators 2010 TS READNFO XViD - IMAGiNE
    ********************************************************************************************************************
    
    Ripper ...........:IMAGiNE                                      IMDB Rating.......:7.6/10                             
    Video Codec.......:XViD                                         Release Date......:07/09/10
    Audio Codec.......:Layer 3                                      Theatre Date......:07/10/10
    Audio Bitrate.....:128                                          Runtime...........:1h 41mn
    Subtitles.........:NIL                                          Language..........:ENGLISH
    Resolution........:720 x 304                                    IMDb URL..........:http://www.imdb.com/title/tt1424381/
    
    
    DETAILS:
    
    Video
    Format                           : MPEG-4 Visual
    Format profile                   : Streaming Video@L1
    Format settings, BVOP            : Yes
    Format settings, QPel            : No
    Format settings, GMC             : No warppoints
    Format settings, Matrix          : Default
    Muxing mode                      : Packed bitstream
    Codec ID                         : XVID
    Codec ID/Hint                    : XviD
    Duration                         : 1h 41mn
    Bit rate                         : 1 797 Kbps
    Width                            : 720 pixels
    Height                           : 304 pixels
    Display aspect ratio             : 2.35
    Frame rate                       : 25.000 fps
    Resolution                       : 24 bits
    Colorimetry                      : 4:2:0
    Scan type                        : Progressive
    Bits/(Pixel*Frame)               : 0.328
    Stream size                      : 1.27 GiB (93%)
    Writing library                  : XviD 50
    
    Audio
    Format                           : MPEG Audio
    Format version                   : Version 1
    Format profile                   : Layer 3
    Codec ID                         : 55
    Codec ID/Hint                    : MP3
    Duration                         : 1h 41mn
    Bit rate mode                    : Constant
    Bit rate                         : 128 Kbps
    Channel(s)                       : 2 channels
    Sampling rate                    : 44.1 KHz
    Resolution                       : 16 bits
    Stream size                      : 92.6 MiB (7%)
    Alignment                        : Split accross interleaves
    Interleave, duration             : 40 ms (1.00 video frame)
    Interleave, preload duration     : 500 ms
    
    
    
    NOTES:
    
    IMAGiNE bringing you another release..... Predators 2010
    
    This one goes out to our very good friend that wants to see this one...  
    You know who you are... 
    
    Sources used were the the xvid from RelizLab... Thanks Mate...  And our own line audio 
    Work done... We used a few filters on this one to help it out as 
    it's not the best video or audio sources on this one. Used a 
    smoother filter,sharpness filter,white balance filter,rgb eq,contrast 
    and brightness levels... Also increased contrast as the source looked washed 
    out. Another thing... Towards the neding, there are a bit of autofocus issues in the video... 
    Nothing we can do about this sorry...
    Now onto the audio... This audio is not the best as we had to do some chopping 
    on this one. Our line had some bad areas that had to be removed, so we used 
    some cam audio that we we're given by a friend and cut in the 3 places that 
    needed it to bring you a full release... 
    
    Enjoy 
    [​IMG]
    Code:
    http://www.imdb.com/title/tt1424381

    [​IMG]

    [​IMG]
    [​IMG]
    [​IMG]
    [​IMG]
    [​IMG]


    [​IMG]



    ### SharingMatrix Link's: 260MB ###

    Code:
    http://sharingmatrix.com/file/15265945/Predators_2010_TS_READNFO_XViD_-_IMAGiNE_Aeon.part1.rar	
    http://sharingmatrix.com/file/15265953/Predators_2010_TS_READNFO_XViD_-_IMAGiNE_Aeon.part2.rar	
    http://sharingmatrix.com/file/15266397/Predators_2010_TS_READNFO_XViD_-_IMAGiNE_Aeon.part3.rar	
    http://sharingmatrix.com/file/15266321/Predators_2010_TS_READNFO_XViD_-_IMAGiNE_Aeon.part4.rar	
    http://sharingmatrix.com/file/15266411/Predators_2010_TS_READNFO_XViD_-_IMAGiNE_Aeon.part5.rar	
    http://sharingmatrix.com/file/15266343/Predators_2010_TS_READNFO_XViD_-_IMAGiNE_Aeon.part6.rar	
    http://sharingmatrix.com/file/15266345/Predators_2010_TS_READNFO_XViD_-_IMAGiNE_Aeon.part7.rar

    ### HotFile Link's: 400MB ###

    Code:
    http://hotfile.com/dl/59345046/2017385/Predators_2010_TS_READNFO_XViD_-_IMAGiNE_Aeon.part1.rar.html
    http://hotfile.com/dl/59345639/0eaaf6c/Predators_2010_TS_READNFO_XViD_-_IMAGiNE_Aeon.part2.rar.html
    http://hotfile.com/dl/59346391/c8bac80/Predators_2010_TS_READNFO_XViD_-_IMAGiNE_Aeon.part3.rar.html
    http://hotfile.com/dl/59347007/ae7f208/Predators_2010_TS_READNFO_XViD_-_IMAGiNE_Aeon.part4.rar.html


    [​IMG]
     
  2. Aeons

    Aeons Guest

    Reupload premium/free links
     
  3. Aeons

    Aeons Guest

    Reupload done
     
  4. rdyson6216

    rdyson6216 Guest

    Hello can you upload other links please
    thanks
     
  5. Aeons

    Aeons Guest

    Sorry on this moment i upload only on SM
     
  6. Aeons

    Aeons Guest

    Reupload done and added FileServe links Enjoy
     
  7. Aeons

    Aeons Guest

    Reupload SM and added xxxxxxxx links
     
  8. Aeons

    Aeons Guest

    Added hotfile links Enjoy
     
  9. Aeons

    Aeons Guest

    Reupload done
     
  10. Aeons

    Aeons Guest

    Added HF links
     
  11. Aeons

    Aeons Guest

    Added New Hf links
     

Share This Page