Prince of Persia: The Sands of Time (2010) / 400Mb/MKV

Discussion in 'Archive' started by nescafe5000, Jul 1, 2010.

  1. nescafe5000

    nescafe5000 Guest

    [​IMG]

    [​IMG]
    Code:
    http://www.imdb.com/title/tt0473075/
    [TITLE]…………………….[ Prince of Persia: The Sands of Time
    [DIRECTOR]………………….[ Mike Newell
    [RELEASE DATE]………………[ 28 May 2010 (USA)
    [FORMAT]:…………………..[ Matroska (MKV)
    [GENRE]:……………………[ Action | Adventure | Fantasy | Romance
    [NO OF CDs]…………………[ 1
    [FILE SIZE]:………………..[ 400MB
    [RESOLUTION]:……………….[ 720x304
    [LANGUAGE ]:………………..[ English
    [SUBTITLES]:………………..[ N/A
    [ORIGINAL RUNTIME]:………….[ 01:47:32
    [RELEASE RUNTIME]:…………..[ 01:47:32
    [SOURCE]:…………………..[ Prince Of Persia: The Sands Of Time (2010) TS Proper XVID-ViSiON
    [iMDB RATING]:………………[ 6.9/10


    [​IMG]
    [​IMG]
    [​IMG]
    [​IMG]

    [​IMG]
    Code:
    http://hotfile.com/dl/47581846/2495b10/Prince.of.Persia.The.Sands.of.Time(2010)TSV2.part1.rar.html
    http://hotfile.com/dl/47582261/9709161/Prince.of.Persia.The.Sands.of.Time(2010)TSV2.part2.rar.html
    http://hotfile.com/dl/47582442/5a95daa/Prince.of.Persia.The.Sands.of.Time(2010)TSV2.part3.rar.html
    
    Code:
    http://www.fileserve.com/list/mnS9FQB
    
    Code:
    http://sharingmatrix.com/folder/7c6f7af92ee1dd07
    
    [​IMG]
     
  2. pelivan

    pelivan Guest

    thaaaaaaaaaaaanx
     
  3. paidul

    paidul Guest

    not found to extract..
     
  4. mat_naish87

    mat_naish87 Guest

    Thank You!!
     
  5. nescafe5000

    nescafe5000 Guest

    enjoy!!!
     
  6. mr6979

    mr6979 Guest

    thanxxxxxxxxxxxxxxxxxxxxxxxxxxxxxxxxxxxxxxxxxxxxxx,
    again
    thanxxxxxxxxxxxxxxxx
     
  7. nescafe5000

    nescafe5000 Guest

    thanks every body.enjoy now!!
     
  8. mas80

    mas80 Guest

    thanks for ur post....
     
  9. soyersky

    soyersky Guest

    if u want your post last longer,never put original title of movie in links!!
     
  10. formen20

    formen20 Guest

    [​IMG]
    [​IMG]
    Here parameters:
    Video
    ID: 1
    Format: RealVideo 4
    Codec ID: RV40
    Codec ID / Info: Based on AVC (H.264), Real Player 9
    Duration: 1h 43mn
    Bit rate: 444 Kbps
    Width: 640 pixels
    Height: 272 pixels
    Display aspect ratio: 2.35:1
    Frame rate: 25.000 fps
    Bits / (Pixel * Frame): 0.102
    Stream size: 330 MiB (85%)
    Audio
    ID: 0
    Format: Cooker
    Codec ID: cook
    Codec ID / Info: Based on G.722.1, Real Player 6
    Duration: 1h 43mn
    Bit rate: 64.1 Kbps
    Channel (s): 2 channels
    Sampling rate: 44.1 KHz
    Bit depth: 16 bit
    Stream size: 47.6 MiB (12%)
    Here are the links: Prince of Persia The Sands of Time TS V2
    Code:
    http://hotfile.com/dl/53650360/0260354/Prince_of_Persia_The_Sands_of_Time_TS_V2.part1.rar.html
    http://hotfile.com/dl/53656338/9b90e97/Prince_of_Persia_The_Sands_of_Time_TS_V2.part2.rar.html
    http://hotfile.com/dl/53661804/1f66012/Prince_of_Persia_The_Sands_of_Time_TS_V2.part3.rar.html
    http://hotfile.com/dl/54764840/4fc3b5e/Prince_of_Persia_The_Sands_of_Time_TS_V2.part4.rar.html
    http://hotfile.com/dl/54773501/89e9199/Prince_of_Persia_The_Sands_of_Time_TS_V2.part5.rar.html
    Why download from me?
    * Video checked in person, so you have 100% confidence!
    * Upload the highest quality!
    * The archives contain 10% data recovery! My upload!
    * No sciemy not only some uploads
    * See for yourself
     
  11. handrix_50

    handrix_50 Guest

    waiting for original dvd
     
  12. rotex

    rotex Guest

    thanks.
     
  13. megadisc

    megadisc Guest

    when will dvd come out ah ?????????/
     
  14. twazy

    twazy Guest

    Thanks for the movie.
     
  15. nescafe5000

    nescafe5000 Guest

    thanks enjoy
     
  16. ajeyagv

    ajeyagv Guest

    thanks man
     
  17. kakashi777

    kakashi777 Guest

    thanks!
     
  18. vangtuba

    vangtuba Guest

    thank bro .........
     
  19. handrix_50

    handrix_50 Guest

    waste of time................................
     
  20. nescafe5000

    nescafe5000 Guest

    enjoy.now
     

Share This Page