Prince of Persia The Sands of Time | 2010 | TS XviD| RS Link| 350 MB | MKV | By Ali

Discussion in 'Archive' started by ali_ali, May 29, 2010.

  1. ali_ali

    ali_ali Guest

    [​IMG]


    Code:
          *********** ****    ****      ***      ******** *********** ****    *** **********
               *+*     +*+*+* *+*+*+   *+* *+*   *+*    *+*    *+*     *+*+*   *+* *+*        
               +*+     +*+ +*+*+ +*+  +*+   +*+  +*+           +*+     *+*+*+  +*+ +*+        
               +$+     +$+  +*+  +$+ +$++*++$++* *$*           +$+     +$+ +*+ +$+ +$++*++$  
               +$+     +$+       +$+ +$+     +$+ +$+   +$+$    +$+     +$+  +$+$+$ +$+        
               $+$     $+$       $+$ $+$     $+$ $+$    $+$    $+$     $+$   $+$+$ $+$        
           $$$$$$$$$$$ $$$       $$$ $$$     $$$  $$$$$$$$ $$$$$$$$$$$ $$$    $$$$ $$$$$$$$$$     
                                                    
    
    
    
                           Another Fine Release Brought to you from - IMAGiNE                   
                                        http://imaginegroup.me/
    
    ****************************************************************************************************************
    
    ****                                
                                  Prince of Persia: The Sands of Time TS XViD IMAGiNE
    ****************************************************************************************************************
    
    ****
    6.8/10                             
    Video Codec.......:XVID                                     Release Date......:28/05/10
    Audio Codec.......:MP3                                      Theatre Date......:28/05/10
    Audio Bitrate.....:128                                      Runtime...........:1h 44mn
    Subtitles.........:NIL                                      Language..........:ENGLISH
    Resolution........:640 x 272                                IMDb 
    
    URL..........:http://www.imdb.com/title/tt0473075/
    
    
    DETAILS:
    
    Video
    Format                           : MPEG-4 Visual
    Format profile                   : Streaming Video@L1
    Format settings, BVOP            : Yes
    Format settings, QPel            : No
    Format settings, GMC             : No warppoints
    Format settings, Matrix          : Default
    Muxing mode                      : Packed bitstream
    Codec ID                         : XVID
    Codec ID/Hint                    : XviD
    Duration                         : 1h 43mn
    Bit rate                         : 1 759 Kbps
    Width                            : 640 pixels
    Height                           : 272 pixels
    Display aspect ratio             : 2.35
    Frame rate                       : 25.000 fps
    Resolution                       : 24 bits
    Colorimetry                      : 4:2:0
    Scan type                        : Progressive
    Bits/(Pixel*Frame)               : 0.404
    Stream size                      : 1.28 GiB (93%)
    Writing library                  : XviD 50
    
    Audio
    Format                           : MPEG Audio
    Format version                   : Version 1
    Format profile                   : Layer 3
    Codec ID                         : 55
    Codec ID/Hint                    : MP3
    Duration                         : 1h 43mn
    Bit rate mode                    : Constant
    Bit rate                         : 128 Kbps
    Channel(s)                       : 2 channels
    Sampling rate                    : 44.1 KHz
    Resolution                       : 16 bits
    Video delay                      : 9ms
    Stream size                      : 94.9 MiB (7%)
    Alignment                        : Split accross interleaves
    Interleave, duration             : 40 ms (1.00 video frame)
    Interleave, preload duration     : 498 ms
    
    
    
    
    NOTES:
    
    IMAGiNE bringing you another release..... Prince of Persia: The Sands of Time
     
    Well here we have a very nice Telesync for you to enjoy this weekend. On the OPENING DAY in the USA HeHe
    First off many thanks to Relizlab for the great video and TA for the great audio, Which together
    make this a great release. We fixed the AR first, then we also balanced out the rgb colours, altered the 
    
    contrast (made it darker), lowered the chroma, and cleaned the video noise. Then on to the syncing of the audio 
    
    which is very nice line audio. This was not an easy one, but we got it done... :P 
    

    [​IMG]
    [​IMG]

    Code:
    http://rapidshare.com/files/392938933/IP.By.Ali.part1.rar
    http://rapidshare.com/files/392938902/IP.By.Ali.part2.rar
    http://rapidshare.com/files/392938911/IP.By.Ali.part3.rar
    http://rapidshare.com/files/392938806/IP.By.Ali.part4.rar
    
    OR

    Code:
    http://rapidshare.com/files/392941287/popolar.By.Ali.part1.rar
    http://rapidshare.com/files/392941304/popolar.By.Ali.part2.rar
    http://rapidshare.com/files/392941320/popolar.By.Ali.part3.rar
    http://rapidshare.com/files/392941164/popolar.By.Ali.part4.rar
    

    Password:
    Code:
    ali
     
  2. vibes

    vibes Guest

    why r u bluffing everybody
     
  3. chumbmazli

    chumbmazli Guest

    ??? Wtf ???
     
  4. makaveli_021

    makaveli_021 Guest

    garbage
    don't bother
     
  5. duadimensi

    duadimensi Guest

    thanks ali this true film prince of persia
     
  6. dcefhkcz

    dcefhkcz Guest

    thanks again mate:good:
     
  7. e_permana07

    e_permana07 Guest

    Thanks for the movie. :D
    May I Request Avatar Movie 720p Ur Ripping ?
     
  8. ali_ali

    ali_ali Guest

    Your Welcome Every Body
     
  9. good looking and nice sound. keep working
     
  10. vibes

    vibes Guest

    sorry my fault
     
  11. harribo

    harribo Guest

    great many thanks ali
     
  12. Big-Brother

    Big-Brother Guest

    thanks ali joooooooooon:yes:
     
  13. ali_ali

    ali_ali Guest

    Your Welcome
     
  14. esar

    esar Guest

    thanks for sharing
     
  15. Harish_Gadha

    Harish_Gadha Guest

    Ali ki maa ki chot...:clapping::rofl:
     
  16. peacemaker

    peacemaker Guest

    thanks bro
     
  17. dersder

    dersder Guest

    Thanks
     
  18. dognut

    dognut Guest

    thanks
     

Share This Page