Project X 2012 CAM XVID INSPiRAL Single 1 Link Full Avi

Discussion in '2012 Movies' started by RMTeam, Mar 15, 2012.

  1. RMTeam

    RMTeam Active Member

    Joined:
    Feb 18, 2012
    Messages:
    4,485
    Likes Received:
    2
    Trophy Points:
    38
    Project X 2012 CAM XVID INSPiRAL

    [​IMG]

    Project X (2012)
    Genre: Comedy
    Directed By: Nima Nourizadeh
    Cast: Thomas Mann, Oliver Cooper, Jonathan Daniel Brown
    MPAA Rate: R
    Storyline: 3 high school seniors throw a birthday party to make a name for themselves. As the night progresses, things spiral out of control as word of the party spreads.

    Code:
        IMDB Rate: 6.3
        IMDB: http://www.imdb.com/title/tt1636826/
    [​IMG]

    [​IMG]

    [​IMG]

    DOWNLOAD
    Code:
    http://www.rarefile.net/cas7tef224sf/px.2012.cxi.u25081.RMTeam.rar


    SOURCES:

    VIDEO - THANKS
    AUDIO - THANKS
    SUBS - None Add

    STATS:
    General
    Complete name : D:\INSPiRAL\IN PROGRESS\Project.X.2012.CAM.INSPiRAL.avi
    Format : AVI
    Format/Info : Audio Video Interleave
    File size : 699 MiB
    Duration : 1h 17mn
    Overall bit rate : 1 259 Kbps
    Writing library : VirtualDub build 32842/release

    Video
    ID : 0
    Format : MPEG-4 Visual
    Format profile : Advanced Simple@L5
    Format settings, BVOP : 2
    Format settings, QPel : No
    Format settings, GMC : No warppoints
    Format settings, Matrix : Default (MPEG)
    Muxing mode : Packed bitstream
    Codec ID : XVID
    Codec ID/Hint : XviD
    Duration : 1h 17mn
    Bit rate : 1 125 Kbps
    Width : 480 pixels
    Height : 272 pixels
    Display aspect ratio : 16:9
    Frame rate : 15.000 fps
    Color space : YUV
    Chroma subsampling : 4:2:0
    Bit depth : 8 bits
    Scan type : Progressive
    Compression mode : Lossy
    Bits/(Pixel*Frame) : 0.574
    Stream size : 625 MiB (89%)
    Writing library : XviD 64

    Audio
    ID : 1
    Format : MPEG Audio
    Format version : Version 2
    Format profile : Layer 3
    Mode : Joint stereo
    Mode extension : MS Stereo
    Codec ID : 55
    Codec ID/Hint : MP3
    Duration : 1h 17mn
    Bit rate mode : Constant
    Bit rate : 128 Kbps
    Channel(s) : 2 channels
    Sampling rate : 22.05 KHz
    Compression mode : Lossy
    Stream size : 71.1 MiB (10%)
    Alignment : Split accross interleaves
    Interleave, duration : 67 ms (1.00 video frame)
    Interleave, preload duration : 500 ms
    Writing library : LAME3.99r
    Encoding settings : -m j -V 4 -q 2 -lowpass 11 -b 128
     
  2. kepps74

    kepps74 New Member

    Joined:
    Feb 19, 2012
    Messages:
    0
    Likes Received:
    0
    Trophy Points:
    0
    Thanks a lot
     

Share This Page