Red Cliff II 2009 BRRip H264 AAC-SecretMyth (Kingdom-Release)

Discussion in 'Archive' started by deukallion21, May 13, 2009.

  1. deukallion21

    deukallion21 Guest

    Red Cliff II 2009 BRRip H264 AAC-SecretMyth (Kingdom-Release)

    [​IMG]

    [​IMG]

    SCREENS

    [​IMG]

    [​IMG]

    INFO

    Code:
    Format                           : MPEG-4
    Format profile                   : Base Media / Version 2
    Codec ID                         : mp42
    File size                        : 1.40 GiB
    Duration                         : 2h 21mn
    Overall bit rate                 : 1 422 Kbps
    Encoded date                     : UTC 2009-03-30 21:13:35
    Tagged date                      : UTC 2009-03-31 00:57:50
    Writing application              : HandBrake 0.9.3 2008112300
    
    Video
    Format                           : AVC
    Format/Info                      : Advanced Video Codec
    Format profile                   : Main@L4.1
    Format settings, CABAC           : Yes
    Format settings, ReFrames        : 3 frames
    Codec ID                         : avc1
    Codec ID/Info                    : Advanced Video Coding
    Duration                         : 2h 21mn
    Bit rate mode                    : Variable
    Bit rate                         : 1 259 Kbps
    Nominal bit rate                 : 1 275 Kbps
    Width                            : 1 280 pixels
    Height                           : 528 pixels
    Display aspect ratio             : 2.424
    Frame rate mode                  : Variable
    Frame rate                       : 24.000 fps
    Minimum frame rate               : 23.810 fps
    Maximum frame rate               : 24.390 fps
    Resolution                       : 24 bits
    Colorimetry                      : 4:2:0
    Scan type                        : Progressive
    Bits/(Pixel*Frame)               : 0.078
    Stream size                      : 1.24 GiB (89%)
    Writing library                  : x264 core 65
    Encoding settings                : cabac=1 / ref=3 / deblock=1:0:0 / analyse=0x1:0x111 / me=hex / subme=6 / psy_rd=1.0:0.0 / mixed_ref=0 / me_range=16 / chroma_me=1 / trellis=2 / 8x8dct=0 / cqm=0 / deadzone=21,11 / chroma_qp_offset=-2 / threads=3 / nr=0 / decimate=1 / mbaff=0 / bframes=0 / keyint=241 / keyint_min=25 / scenecut=40(pre) / rc=abr / bitrate=1275 / ratetol=1.0 / qcomp=0.60 / qpmin=10 / qpmax=51 / qpstep=4 / ip_ratio=1.40 / aq=1:1.00
    Encoded date                     : UTC 2009-03-30 21:13:35
    Tagged date                      : UTC 2009-03-31 00:57:50
    
    Audio
    Format                           : AAC
    Format/Info                      : Advanced Audio Codec
    Format version                   : Version 4
    Format profile                   : LC
    Format settings, SBR             : No
    Codec ID                         : 40
    Duration                         : 2h 21mn
    Bit rate mode                    : Variable
    Bit rate                         : 160 Kbps
    Maximum bit rate                 : 215 Kbps
    Channel(s)                       : 2 channels
    Channel positions                : L R
    Sampling rate                    : 48.0 KHz
    Resolution                       : 16 bits
    Stream size                      : 162 MiB (11%)
    Encoded date                     : UTC 2009-03-30 21:13:35
    Tagged date                      : UTC 2009-03-31 00:57:44
    IMDB

    Code:
    http://www.imdb.com/title/tt1326972/
    LINKS

    Code:
    http://rapidshare.com/files/231261958/Red_Cliff_II.part01.rar
    http://rapidshare.com/files/231266796/Red_Cliff_II.part02.rar
    http://rapidshare.com/files/231271779/Red_Cliff_II.part03.rar
    http://rapidshare.com/files/231557626/Red_Cliff_II.part04.rar
    http://rapidshare.com/files/231561047/Red_Cliff_II.part05.rar
    http://rapidshare.com/files/231564339/Red_Cliff_II.part06.rar
    http://rapidshare.com/files/231567593/Red_Cliff_II.part07.rar
    http://rapidshare.com/files/231570811/Red_Cliff_II.part08.rar
    http://rapidshare.com/files/231573966/Red_Cliff_II.part09.rar
    http://rapidshare.com/files/231577206/Red_Cliff_II.part10.rar
    http://rapidshare.com/files/231580426/Red_Cliff_II.part11.rar
    http://rapidshare.com/files/231583960/Red_Cliff_II.part12.rar
    http://rapidshare.com/files/231587411/Red_Cliff_II.part13.rar
    http://rapidshare.com/files/231590571/Red_Cliff_II.part14.rar
    http://rapidshare.com/files/231593093/Red_Cliff_II.part15.rar
    NO PASS (FOR US...)
     
  2. ZuZu

    ZuZu Guest

    Thank you
     
  3. deukallion21

    deukallion21 Guest

    U r welcome...
     
  4. tzui

    tzui New Member

    Joined:
    Feb 27, 2013
    Messages:
    0
    Likes Received:
    0
    Trophy Points:
    0
    Any English subtitle?
     
  5. deukallion21

    deukallion21 Guest

    try this,they should work fine....
     
  6. tzui

    tzui New Member

    Joined:
    Feb 27, 2013
    Messages:
    0
    Likes Received:
    0
    Trophy Points:
    0
    Thank you very much, it's working
     
  7. deukallion21

    deukallion21 Guest

    U r welcome...
     
  8. papu

    papu New Member

    Joined:
    May 4, 2013
    Messages:
    0
    Likes Received:
    0
    Trophy Points:
    0
    Thanks heaps
     
  9. deukallion21

    deukallion21 Guest

    enjoy....
     
  10. 77ecma

    77ecma Guest

    tnx, bat links are dead, can you please reupload ??? PLS
     
  11. tinto75

    tinto75 New Member

    Joined:
    Aug 4, 2012
    Messages:
    0
    Likes Received:
    0
    Trophy Points:
    0
    Links dead
     
  12. deukallion21

    deukallion21 Guest

    no they work fine
     
  13. kannan1181

    kannan1181 Guest

    reupload pls
     

Share This Page