ReGenesis S02 1080p BluRay AC3 x264-iNGOT

Discussion in 'TV Series - Boxset' started by Sheriff, Jun 11, 2015.

  1. Sheriff

    Sheriff Administrator Staff Member

    Joined:
    Feb 18, 2012
    Messages:
    42,274
    Likes Received:
    1,424
    Trophy Points:
    113
    [​IMG]

    Information:
    Code:
    TVRage:
    http://www.tvrage.com/ReGenesis
    
    IMDb:
    http://www.imdb.com/title/tt0429422/
    
    ReGenesis.S02.1080p.BluRay.x264-iNGOT

    [​IMG]
    Code:
    Download from NITROFLARE
    http://www.nitroflare.com/view/30776639ECB591B/regenesis.s02e01.1080p.bluray.x264-ingot.mkv
    http://www.nitroflare.com/view/C0CCB72F4D00773/regenesis.s02e02.1080p.bluray.x264-ingot.mkv
    http://www.nitroflare.com/view/67707A24C507B4F/regenesis.s02e03.1080p.bluray.x264-ingot.mkv
    http://www.nitroflare.com/view/7FC4C6CED205F00/regenesis.s02e04.1080p.bluray.x264-ingot.mkv
    http://www.nitroflare.com/view/089509674F4C84D/regenesis.s02e05.1080p.bluray.x264-ingot.mkv
    http://www.nitroflare.com/view/FF9355E487D8269/regenesis.s02e06.1080p.bluray.x264-ingot.mkv
    http://www.nitroflare.com/view/0F7BD7D259A8D14/regenesis.s02e07.1080p.bluray.x264-ingot.mkv
    http://www.nitroflare.com/view/8F9503C23F723D4/regenesis.s02e08.1080p.bluray.x264-ingot.mkv
    http://www.nitroflare.com/view/0EA544EC0EE2086/regenesis.s02e09.1080p.bluray.x264-ingot.mkv
    http://www.nitroflare.com/view/834D9D733183CD0/regenesis.s02e10.1080p.bluray.x264-ingot.mkv
    http://www.nitroflare.com/view/988E572F3A84B79/regenesis.s02e11.1080p.bluray.x264-ingot.mkv
    http://www.nitroflare.com/view/B02BC668134804D/regenesis.s02e12.1080p.bluray.x264-ingot.mkv
    http://www.nitroflare.com/view/990ADAB06CC7AA6/regenesis.s02e13.1080p.bluray.x264-ingot.mkv
    
    [​IMG]
    Code:
    Download from REDBUNKER
    http://www.redbunker.net/8u227hx3vwz3/regenesis.s02e01.1080p.bluray.x264-ingot.mkv.html
    http://www.redbunker.net/ol9kbf1drfs1/regenesis.s02e02.1080p.bluray.x264-ingot.mkv.html
    http://www.redbunker.net/r6ya6itw0uxd/regenesis.s02e03.1080p.bluray.x264-ingot.mkv.html
    http://www.redbunker.net/c5q28y7bizxp/regenesis.s02e04.1080p.bluray.x264-ingot.mkv.html
    http://www.redbunker.net/aij0p3jlh7vg/regenesis.s02e05.1080p.bluray.x264-ingot.mkv.html
    http://www.redbunker.net/v0e21fa2tyta/regenesis.s02e06.1080p.bluray.x264-ingot.mkv.html
    http://www.redbunker.net/y8sjgpxlzyih/regenesis.s02e07.1080p.bluray.x264-ingot.mkv.html
    http://www.redbunker.net/ags9lh5crhaf/regenesis.s02e08.1080p.bluray.x264-ingot.mkv.html
    http://www.redbunker.net/3t8wezmk8ovr/regenesis.s02e09.1080p.bluray.x264-ingot.mkv.html
    http://www.redbunker.net/2mcnkn3rnilo/regenesis.s02e10.1080p.bluray.x264-ingot.mkv.html
    http://www.redbunker.net/r12qsh2cxyke/regenesis.s02e11.1080p.bluray.x264-ingot.mkv.html
    http://www.redbunker.net/rk4elqis69zd/regenesis.s02e12.1080p.bluray.x264-ingot.mkv.html
    http://www.redbunker.net/mzxiakop88bn/regenesis.s02e13.1080p.bluray.x264-ingot.mkv.html
    
    NFO:
    Code:
    Video
    ID                                       : 1
    Format                                   : AVC
    Format/Info                              : Advanced Video Codec
    Format profile                           : High@L4.1
    Format settings, CABAC                   : Yes
    Format settings, ReFrames                : 4 frames
    Codec ID                                 : V_MPEG4/ISO/AVC
    Duration                                 : 44mn 23s
    Bit rate                                 : 8 338 Kbps
    Width                                    : 1 920 pixels
    Height                                   : 1 080 pixels
    Display aspect ratio                     : 16:9
    Frame rate                               : 25.000 fps
    Color space                              : YUV
    Chroma subsampling                       : 4:2:0
    Bit depth                                : 8 bits
    Scan type                                : Progressive
    Bits/(Pixel*Frame)                       : 0.161
    Stream size                              : 2.53 GiB (96%)
    Writing library                          : x264 core 146 r2538 121396c
    Encoding settings                        : cabac=1 / ref=4 / deblock=1:-2:-2 / analyse=0x3:0x113 / me=umh / subme=8 / psy=1 / psy_rd=1.00:0.00 / mixed_ref=1 / me_range=16 / chroma_me=1 / trellis=1 / 8x8dct=1 / cqm=0 / deadzone=21,11 / fast_pskip=1 / chroma_qp_offset=-2 / threads=24 / lookahead_threads=4 / sliced_threads=0 / nr=0 / decimate=1 / interlaced=0 / bluray_compat=0 / constrained_intra=0 / bframes=3 / b_pyramid=2 / b_adapt=2 / b_bias=0 / direct=3 / weightb=1 / open_gop=0 / weightp=2 / keyint=250 / keyint_min=25 / scenecut=40 / intra_refresh=0 / rc_lookahead=50 / rc=2pass / mbtree=1 / bitrate=8338 / ratetol=1.0 / qcomp=0.60 / qpmin=0 / qpmax=69 / qpstep=4 / cplxblur=20.0 / qblur=0.5 / ip_ratio=1.40 / aq=1:1.00
    Language                                 : English
    Default                                  : Yes
    Forced                                   : No
    DURATION                                 : 00:44:23.120000000
    NUMBER_OF_FRAMES                         : 66578
    NUMBER_OF_BYTES                          : 2775837443
    _STATISTICS_WRITING_APP                  : mkvmerge v7.8.0 ('River Man') 32bit built on Mar 27 2015 16:18:02
    _STATISTICS_WRITING_DATE_UTC             : 2015-05-09 12:11:12
    _STATISTICS_TAGS                         : BPS DURATION NUMBER_OF_FRAMES NUMBER_OF_BYTES
    
    Audio
    ID                                       : 2
    Format                                   : AC-3
    Format/Info                              : Audio Coding 3
    Mode extension                           : CM (complete main)
    Format settings, Endianness              : Big
    Codec ID                                 : A_AC3
    Duration                                 : 44mn 23s
    Bit rate mode                            : Constant
    Bit rate                                 : 192 Kbps
    Channel(s)                               : 2 channels
    Channel positions                        : Front: L R
    Sampling rate                            : 48.0 KHz
    Bit depth                                : 16 bits
    Compression mode                         : Lossy
    Stream size                              : 61.0 MiB (2%)
    Language                                 : English
    Default                                  : Yes
    Forced                                   : No
    
    Text
    ID                                       : 3
    Format                                   : UTF-8
    Codec ID                                 : S_TEXT/UTF8
    Codec ID/Info                            : UTF-8 Plain Text
    Title                                    : Forced
    Language                                 : English
    Default                                  : Yes
    Forced                                   : Yes
    
    Menu
    00:00:00.000                             : en:00:00:00.000
    00:01:25.840                             : en:00:01:25.840
    00:12:38.400                             : en:00:12:38.400
    00:24:44.200                             : en:00:24:44.200
    00:42:38.440                             : en:00:42:38.440
    00:43:27.080                             : en:00:43:27.080
    
     

Share This Page