River Monsters Season 1&2 Complete

Discussion in 'TV Series - Boxset' started by BetterRhyme, Mar 8, 2012.

  1. BetterRhyme

    BetterRhyme Guest

    [​IMG]

    Screens From Season 1 Episode 1


    Info Taken From Season 1 Episode 1

    Code:
    General
    Complete name                    : C:\Users\Cory\Desktop\Blahh\River Monsters\Season 1\Show\Piranha - S01E01.avi
    Format                           : AVI
    Format/Info                      : Audio Video Interleave
    File size                        : 559 MiB
    Duration                         : 40mn 29s
    Overall bit rate                 : 1 929 Kbps
    Movie name                       : RIVERMONSTERS_DISC1.Title1.DVDRip
    Writing application              : Lavf52.33.0
    Original source form/Name        : RIVERMONSTERS_DISC1
    
    Video
    ID                               : 0
    Format                           : MPEG-4 Visual
    Format profile                   : Simple@L3
    Format settings, BVOP            : No
    Format settings, QPel            : No
    Format settings, GMC             : No warppoints
    Format settings, Matrix          : Default (H.263)
    Codec ID                         : DX50
    Codec ID/Hint                    : DivX 5
    Duration                         : 40mn 29s
    Bit rate                         : 1 725 Kbps
    Width                            : 720 pixels
    Height                           : 400 pixels
    Display aspect ratio             : 16:9
    Frame rate                       : 29.970 fps
    Resolution                       : 8 bits
    Colorimetry                      : 4:2:0
    Scan type                        : Progressive
    Bits/(Pixel*Frame)               : 0.200
    Stream size                      : 500 MiB (89%)
    Writing library                  : XviD 1.2.1 (UTC 2008-12-04)
    
    Audio
    ID                               : 1
    Format                           : AC-3
    Format/Info                      : Audio Coding 3
    Format_Settings_ModeExtension    : CM (complete main)
    Codec ID                         : 2000
    Duration                         : 40mn 29s
    Bit rate mode                    : Constant
    Bit rate                         : 192 Kbps
    Channel(s)                       : 2 channels
    Channel positions                : Front: L R
    Sampling rate                    : 48.0 KHz
    Stream size                      : 55.6 MiB (10%)
    Alignment                        : Aligned on interleaves
    Interleave, duration             : 32 ms (0.96 video frame)
    

    [​IMG]

    Season 1
    Code:
    http://www.rarefile.net/rn3pw3rx3yxu/Piranha_-_S01E01.part1.rar
    http://www.rarefile.net/lkfs6rr4weho/Piranha_-_S01E01.part2.rar
    http://www.rarefile.net/sfu7lejvzasm/Piranha_-_S01E01.part3.rar
    
    http://www.rarefile.net/0wyy9b8oh23k/Killer_Catfish_-_S01E02.part1.rar
    http://www.rarefile.net/zfi8gt1n6e90/Killer_Catfish_-_S01E02.part2.rar
    http://www.rarefile.net/94imnx91yv4r/Killer_Catfish_-_S01E02.part3.rar
    
    http://www.rarefile.net/xdbbej2jtvkn/Alligator_Gar_-_S01E03.part1.rar
    http://www.rarefile.net/5kxixpo9x2pz/Alligator_Gar_-_S01E03.part2.rar
    http://www.rarefile.net/hep4j692a2v9/Alligator_Gar_-_S01E03.part3.rar
    
    http://www.rarefile.net/dfip1ropt7uu/Amazon_Assassins_-_S01E05.part1.rar
    http://www.rarefile.net/v3lmwvesqsq8/Amazon_Assassins_-_S01E05.part2.rar
    http://www.rarefile.net/mimtcvx5wmom/Amazon_Assassins_-_S01E05.part3.rar
    
    http://www.rarefile.net/ebx5na2jal52/Amazon_Flesh_Eaters_-_S01E06.part1.rar
    http://www.rarefile.net/vf76klitquas/Amazon_Flesh_Eaters_-_S01E06.part2.rar
    http://www.rarefile.net/jzn7jwidmrd6/Amazon_Flesh_Eaters_-_S01E06.part3.rar
    
    http://www.rarefile.net/ovjtquctp6ps/Freshwater_Shark_-_S01E07.part1.rar
    http://www.rarefile.net/47lrle4qgrcv/Freshwater_Shark_-_S01E07.part2.rar
    http://www.rarefile.net/209buisghbwg/Freshwater_Shark_-_S01E07.part3.rar
    Season 2
    Code:
    http://www.rarefile.net/gatcbda15rxm/Demon_Fish_-_S02E01.part1.rar
    http://www.rarefile.net/ikjnh3d06chw/Demon_Fish_-_S02E01.part2.rar
    http://www.rarefile.net/r4q77f8drein/Demon_Fish_-_S02E01.part3.rar
    
    http://www.rarefile.net/eo5eevbx2so9/Killer_Snakehead_-_S02E03.part1.rar
    http://www.rarefile.net/2l0w83lov2iu/Killer_Snakehead_-_S02E03.part2.rar
    http://www.rarefile.net/0ahkg3bybj0c/Killer_Snakehead_-_S02E03.part3.rar
    
    http://www.rarefile.net/m1qvepm88xo4/Congo_Killer_-_S02E04.part1.rar
    http://www.rarefile.net/utqxlww1udhp/Congo_Killer_-_S02E04.part2.rar
    
    http://www.rarefile.net/ny6zepyrlbjm/Alaskin_Horror_-_S02E05.part1.rar
    http://www.rarefile.net/vehkjbf8w1ml/Alaskin_Horror_-_S02E05.part2.rar
    
    http://www.rarefile.net/0v4xplyhxvv1/Rift_Valley_Killers_-_S02E06.part1.rar
    http://www.rarefile.net/psvmxkcqbwj9/Rift_Valley_Killers_-_S02E06.part2.rar
    
     

Share This Page