Roadie 2011 DVDRIP x264 AC3 - HOPE Single 1 Link Full

Discussion in '2011 Movies' started by RMTeam, Mar 4, 2012.

  1. RMTeam

    RMTeam Active Member

    Joined:
    Feb 18, 2012
    Messages:
    4,485
    Likes Received:
    2
    Trophy Points:
    38
    Roadie 2011 DVDRIP x264 AC3 - HOPE

    [​IMG]

    Roadie (2011)
    Genre: Drama
    Directed By: Michael Cuesta
    Cast: Ron Eldard, Jill Hennessy, Bobby Cannavale
    MPAA Rate: R
    Storyline: After 20 years on the road with Blue Oyster Cult, Jimmy Testagros returns to his hometown to life with his ailing mother. Complications arise when he falls for an old friend, who is now married to his longtime nemesis.

    Code:
        IMDB Rate: 5.3
        IMDB: http://www.imdb.com/title/tt1450330/
    Information:
    Format : Matroska
    Format version : Version 2
    File size : 1.37 GiB
    Duration : 1h 35mn
    Overall bit rate : 2 042 Kbps
    Encoded date : UTC 2012-03-03 23:27:20
    Writing application : mkvmerge v5.3.0 ('I could have danced') built on Feb 9 2012 10:38:07
    Writing library : libebml v1.2.3 + libmatroska v1.3.0

    Video
    ID : 1
    Format : AVC
    Format/Info : Advanced Video Codec
    Format profile : High@L5.1
    Format settings, CABAC : Yes
    Format settings, ReFrames : 6 frames
    Codec ID : V_MPEG4/ISO/AVC
    Duration : 1h 35mn
    Bit rate : 1 593 Kbps
    Width : 720 pixels
    Height : 400 pixels
    Display aspect ratio : 16:9
    Frame rate : 23.976 fps
    Color space : YUV
    Chroma subsampling : 4:2:0
    Bit depth : 8 bits
    Scan type : Progressive
    Bits/(Pixel*Frame) : 0.231
    Stream size : 1.04 GiB (76%)
    Writing library : x264 core 120 r2164 da19765

    Audio
    ID : 2
    Format : AC-3
    Format/Info : Audio Coding 3
    Mode extension : CM (complete main)
    Codec ID : A_AC3
    Duration : 1h 35mn
    Bit rate mode : Constant
    Bit rate : 448 Kbps
    Channel(s) : 6 channels
    Channel positions : Front: L C R, Side: L R, LFE
    Sampling rate : 48.0 KHz
    Bit depth : 16 bits
    Compression mode : Lossy
    Stream size : 307 MiB (22%)



    DOWNLOAD
    Code:
    http://www.rarefile.net/cepuulwl3ha9/r.2011.d.x264.a3.h.u23431.RMTeam.part1.rar
    http://www.rarefile.net/celz9drfs7a0/r.2011.d.x264.a3.h.u23431.RMTeam.part2.rar
    http://www.rarefile.net/h12o7ulho663/r.2011.d.x264.a3.h.u23431.RMTeam.part3.rar
    [​IMG]

    [​IMG]

    [​IMG]
     

Share This Page