[RS|HF]Clash Of The Titans TSSCR V2 XViD-KiNGDOM

Discussion in 'Archive' started by Google!, Jun 28, 2010.

  1. Google!

    Google! Guest

    Clash Of The Titans TSSCR V2 XViD-KiNGDOM

    [​IMG]

    Code:
    
    Video
    Format: MPEG-4 Visual
    Format profile: Streaming Video@L1
    Format settings, BVOP: Yes
    Format settings, QPel: No
    Format settings, GMC: No warppoints
    Format settings, Matrix: Default
    Muxing mode: Packed bitstream
    Codec ID: XVID
    Codec ID/Hint: XviD
    Duration: 1h 36mn
    Bit rate: 1 958 Kbps
    Width: 720 pixels
    Height: 304 pixels
    Display aspect ratio: 2.35
    Frame rate: 23.976 fps
    Resolution: 24 bits
    Colorimetry: 4:2:0
    Scan type: Progressive
    Bits/(Pixel*Frame): 0.373
    Stream size: 1.33 GiB (88%)
    Writing library: XviD 50
    
    Audio
    Format: AC-3
    Format/Info: Audio Coding 3
    Codec ID: 2000
    Duration: 1h 36mn
    Bit rate mode: Constant
    Bit rate: 256 Kbps
    Channel(s): 2 channels
    Channel positions: L R
    Sampling rate: 48.0 KHz
    Stream size: 178 MiB (12%)
    Alignment: Aligned on interleaves
    Interleave, duration: 42 ms (1.00 video frame)
    Interleave, preload duration: 512 ms
    
    Screens

    [​IMG]

    [​IMG]

    [​IMG]

    [​IMG]

    Code:
    HotFile
    http://hotfile.com/dl/51269973/229be66/SmartWarez.Org-KiNGDOM.part1.rar.html
    http://hotfile.com/dl/51269977/c975592/SmartWarez.Org-KiNGDOM.part2.rar.html
    http://hotfile.com/dl/51269995/006b717/SmartWarez.Org-KiNGDOM.part3.rar.html
    http://hotfile.com/dl/51270004/e80057d/SmartWarez.Org-KiNGDOM.part4.rar.html
    http://hotfile.com/dl/51270023/f49d32b/SmartWarez.Org-KiNGDOM.part5.rar.html
    http://hotfile.com/dl/51270030/e459753/SmartWarez.Org-KiNGDOM.part6.rar.html
    http://hotfile.com/dl/51270041/cc3939b/SmartWarez.Org-KiNGDOM.part7.rar.html
    http://hotfile.com/dl/51269841/ad1dfe9/SmartWarez.Org-KiNGDOM.part8.rar.html
    
    RapidShare
    http://rapidshare.com/files/403669041/SmartWarez.Org-KiNGDOM.part1.rar
    http://rapidshare.com/files/403669083/SmartWarez.Org-KiNGDOM.part2.rar
    http://rapidshare.com/files/403669104/SmartWarez.Org-KiNGDOM.part3.rar
    http://rapidshare.com/files/403669101/SmartWarez.Org-KiNGDOM.part4.rar
    http://rapidshare.com/files/403669216/SmartWarez.Org-KiNGDOM.part5.rar
    http://rapidshare.com/files/403669093/SmartWarez.Org-KiNGDOM.part6.rar
    http://rapidshare.com/files/403669209/SmartWarez.Org-KiNGDOM.part7.rar
    http://rapidshare.com/files/403666975/SmartWarez.Org-KiNGDOM.part8.rar
     
  2. pallavino

    pallavino New Member

    Joined:
    Mar 30, 2014
    Messages:
    0
    Likes Received:
    0
    Trophy Points:
    0
    Cheers
     
  3. Google!

    Google! Guest

    well guys
    i found this version on other site and wanted to share it here
    but i doubt in it
    so , anyone downloads it
    please reply and tell us about the quailty
     
  4. bobbo69

    bobbo69 Guest

    The qualy is good, but it's a Telesync, not DVDSCR, nice try though.[​IMG]
     
  5. kolo

    kolo New Member

    Joined:
    Jul 23, 2012
    Messages:
    0
    Likes Received:
    0
    Trophy Points:
    0
    thx Bob
     
  6. k89

    k89 Guest

    cool.....................
     
  7. Google!

    Google! Guest

    hope you all enjoy it
     
  8. cyberstud87

    cyberstud87 Guest

    ts print.....plz change the topic name n rename it to telesync
     
  9. seagorman

    seagorman Guest

    Good quality Google!, tanx mate
     
  10. hey.. movie looks okay!! but is not DVDscreener.. But the copy is very good. So thanks
     
  11. Google!

    Google! Guest

    hope you enjoy it
     
  12. gherk1n

    gherk1n Guest

    nice try but it'll be on bluray in a couple of weeks
     

Share This Page