Safe House 2012 TS NEW V2 x264-Silmarillion

Discussion in '2012 Movies' started by RMTeam, Mar 16, 2012.

  1. RMTeam

    RMTeam Active Member

    Joined:
    Feb 18, 2012
    Messages:
    4,485
    Likes Received:
    2
    Trophy Points:
    38
    Safe House 2012 TS NEW V2 x264-Silmarillion

    [​IMG]

    Safe House (2012)
    Genre: Action | Crime | Mystery
    Directed By: Daniel Espinosa
    Cast: Denzel Washington, Ryan Reynolds, Vera Farmiga
    MPAA Rate: R
    Storyline: A young CIA agent is tasked with looking after a fugitive in a safe house. But when the safe house is attacked, he finds himself on the run with his charge.

    [​IMG]

    [​IMG]

    Format : MPEG-4

    Format profile : Base Media

    Codec ID : isom

    File size : 1.34 GiB

    Duration : 1h 49mn

    Overall bit rate mode : Variable

    Overall bit rate : 1 758 Kbps

    Encoded date : UTC 2012-03-13 08:08:09

    Tagged date : UTC 2012-03-13 08:08:09

    Writing application : Lavf51.12.1



    Video

    ID : 1

    Format : AVC

    Format/Info : Advanced Video Codec

    Format profile : Baseline@L2.1

    Format settings, CABAC : No

    Format settings, ReFrames : 1 frame

    Format settings, GOP : M=1, N=12

    Codec ID : avc1

    Codec ID/Info : Advanced Video Coding

    Duration : 1h 49mn

    Bit rate : 1 689 Kbps

    Width : 660 pixels

    Height : 272 pixels

    Display aspect ratio : 2.40:1

    Frame rate mode : Constant

    Frame rate : 25.000 fps

    Color space : YUV

    Chroma subsampling : 4:2:0

    Bit depth : 8 bits

    Scan type : Progressive

    Bits/(Pixel*Frame) : 0.376

    Stream size : 1.29 GiB (96%)

    Encoded date : UTC 2012-03-13 08:08:09

    Tagged date : UTC 2012-03-13 08:08:09



    Audio

    ID : 2

    Format : AAC

    Format/Info : Advanced Audio Codec

    Format profile : LC

    Codec ID : 40

    Duration : 1h 49mn

    Bit rate mode : Variable

    Bit rate : 64.0 Kbps

    Channel(s) : 2 channels

    Channel positions : Front: L R

    Sampling rate : 44.1 KHz

    Compression mode : Lossy

    Stream size : 49.9 MiB (4%)

    Encoded date : UTC 2012-03-13 08:08:09

    Tagged date : UTC 2012-03-13 08:08:09


    DOWNLOAD
    Code:
    http://www.rarefile.net/wcod2iet9sek/sh.2012.tn.v2.x264-s.u25184.RMTeam.part1.rar
    http://www.rarefile.net/azzpg7bhqq8x/sh.2012.tn.v2.x264-s.u25184.RMTeam.part2.rar
    http://www.rarefile.net/e8ja2nwwghfz/sh.2012.tn.v2.x264-s.u25184.RMTeam.part3.rar
     

Share This Page