Screw.Balls.1983.DVDRip.AC3.XviD-BaLLs

Discussion in 'Archive' started by urmanon, Nov 18, 2008.

  1. urmanon

    urmanon Guest

    Screw.Balls.1983.DVDRip.AC3.XviD-BaLLs
    [​IMG]
    [​IMG]

    [​IMG]
    Code:
    ▒▒▒▒▒▒▒▒▒▒▒▒▒▒▒▒▒▒▒▒▒▒▒▒▒▒▒▒▒▒▒▒▒▒▒▒▒▒▒▒▒▒▒▒▒▒▒▒▒▒▒▒▒▒▒▒▒▒▒▒▒▒▒▒▒▒▒▒▒▒▒▒▒▒▒▒▒▒▒▒▒▒▒▒▒▒▒▒▒▒▒▒▒▒▒▒▒▒▒▒▒▒▒▒▒▒▒▒▒▒▒▒▒▒▒▒▒▒▒▒▒▒▒▒
    General
    Complete name                    : Screw.Balls.1983.DVDRip.AC3.XviD-BaLLs.avi
    Format                           : AVI
    Format/Info                      : Audio Video Interleave
    File size                        : 700 MiB
    Duration                         : 1h 16mn
    Overall bit rate                 : 1286 Kbps
    Writing application              : VirtualDubMod 1.5.4.1 (build 2178/release)
    Writing library                  : VirtualDubMod build 2178/release
    IAS1                             : English
    
    Video
    Format                           : MPEG-4 Visual
    Format profile                   : Streaming Video@L1
    Format settings* BVOP            : Yes
    Format settings* QPel            : No
    Format settings* GMC             : No warppoints
    Format settings* Matrix          : Custom
    Codec ID                         : XVID
    Codec ID/Hint                    : XviD
    Duration                         : 1h 16mn
    Bit rate                         : 1087 Kbps
    Width                            : 448 pixels
    Height                           : 336 pixels
    Display aspect ratio             : 4/3
    Frame rate                       : 25.000 fps
    Resolution                       : 8 bits
    Colorimetry                      : 4:2:0
    Scan type                        : Progressive
    Bits/(Pixel*Frame)               : 0.289
    Stream size                      : 592 MiB (85%)
    Writing library                  : XviD 1.2.0.dev47 (UTC 2006-11-01)
    
    Audio
    Format                           : AC-3
    Format/Info                      : Audio Coding 3
    Codec ID                         : 2000
    Duration                         : 1h 16mn
    Bit rate mode                    : Constant
    Bit rate                         : 192 Kbps
    Channel(s)                       : 2 channels
    Channel positions                : L R
    Sampling rate                    : 48.0 KHz
    Stream size                      : 105 MiB (15%)
    Alignment                        : Aligned on interleaves
    Interleave* duration             : 96 ms (2.40 video frames)
    Interleave* preload duration     : 96 ms
    ▒▒▒▒▒▒▒▒▒▒▒▒▒▒▒▒▒▒▒▒▒▒▒▒▒▒▒▒▒▒▒▒▒▒▒▒▒▒▒▒▒▒▒▒▒▒▒▒▒▒▒▒▒▒▒▒▒▒▒▒▒▒▒▒▒▒▒▒▒▒▒▒▒▒▒▒▒▒▒▒▒▒▒▒▒▒▒▒▒▒▒▒▒▒▒▒▒▒▒▒▒▒▒▒▒▒▒▒▒▒▒▒▒▒▒▒▒▒▒▒▒▒▒▒
    
    [​IMG]
    Code:
    http://rapidshare.com/files/164849595/Screw.Balls.1983.DVDRip.AC3.XviD-BaLLs_urmanon.part1.rar
    http://rapidshare.com/files/164853714/Screw.Balls.1983.DVDRip.AC3.XviD-BaLLs_urmanon.part2.rar
    http://rapidshare.com/files/164857973/Screw.Balls.1983.DVDRip.AC3.XviD-BaLLs_urmanon.part3.rar
    http://rapidshare.com/files/164928816/Screw.Balls.1983.DVDRip.AC3.XviD-BaLLs_urmanon.part4.rar
    http://rapidshare.com/files/164934477/Screw.Balls.1983.DVDRip.AC3.XviD-BaLLs_urmanon.part5.rar
    http://rapidshare.com/files/164940050/Screw.Balls.1983.DVDRip.AC3.XviD-BaLLs_urmanon.part6.rar
    http://rapidshare.com/files/164945755/Screw.Balls.1983.DVDRip.AC3.XviD-BaLLs_urmanon.part7.rar
    http://rapidshare.com/files/164947087/Screw.Balls.1983.DVDRip.AC3.XviD-BaLLs_urmanon.part8.rar
    
    [​IMG]
    Code:
    Recovery records 10% added
    [​IMG]
    Code:
    ...TO KEEP THIS POST ALIVE :-)
    Code:
    Have a look at my other posts* too...newbies added recently :)
     
  2. R1531

    R1531 Guest

    pls post the entire series if possible thanks
     
  3. urmanon

    urmanon Guest

    Will have a look* but for the time being this is the only one I have .....


    Anyway* Always :crigon_04: here m8 :m13:
     
  4. a26uso55d

    a26uso55d New Member

    Joined:
    Aug 2, 2013
    Messages:
    0
    Likes Received:
    2
    Trophy Points:
    0
    fanx alot mate..........
     
  5. 352rogue

    352rogue New Member

    Joined:
    Aug 3, 2013
    Messages:
    0
    Likes Received:
    1
    Trophy Points:
    0
    I'm looking for the rest of the series too* please post it if you have it. Your effort will be highly appreciated.

    Thanks for this one
     
  6. urmanon

    urmanon Guest

    dear m8s!

    as already mentioned above i'm in a process of searching for the other flicks of this serie. when i find them then will definitely post them here as some kind of continuation. but.........for a moment enjoy this VERY FUNNY flick. :m13:
     
  7. chillin82

    chillin82 Guest

    thanks man hope its the uncut version
     
  8. urmanon

    urmanon Guest

    Always :crigon_04: here m8 :m13:
     
  9. alisalim

    alisalim New Member

    Joined:
    Mar 12, 2013
    Messages:
    0
    Likes Received:
    0
    Trophy Points:
    0
    thank you :)
     
  10. urmanon

    urmanon Guest

    Anytime m8

    Always :crigon_04:
     
  11. paulettespack

    paulettespack New Member

    Joined:
    Apr 21, 2014
    Messages:
    0
    Likes Received:
    0
    Trophy Points:
    0
    Home Page:
    thank you bud
     
  12. urmanon

    urmanon Guest

    Anytime m8 :m13:

    Always :crigon_04:
     
  13. ramu72

    ramu72 New Member

    Joined:
    Sep 9, 2013
    Messages:
    0
    Likes Received:
    0
    Trophy Points:
    0
    An extremely funny movie! Thank you for the upload.
     
  14. urmanon

    urmanon Guest

    Always :crigon_04:
     
  15. kris007

    kris007 Guest

    Thanks alot for sharing. I been looking for this. :heyo:
     
  16. wpksortzfe

    wpksortzfe Guest

    thanks for sharing
     
  17. ktakii

    ktakii New Member

    Joined:
    May 18, 2014
    Messages:
    0
    Likes Received:
    0
    Trophy Points:
    0
    Thanks:girl_cray2:
     
  18. hau053qpy

    hau053qpy New Member

    Joined:
    Nov 18, 2013
    Messages:
    0
    Likes Received:
    0
    Trophy Points:
    0
  19. 0BIGSEXY

    0BIGSEXY Guest

    thanks
     
  20. sminthqjs

    sminthqjs New Member

    Joined:
    Nov 9, 2013
    Messages:
    0
    Likes Received:
    1
    Trophy Points:
    0
    Thanks for share!!!
     

Share This Page