Shes Out Of My League TS XViD-IMAGiNE

Discussion in 'Archive' started by husajn11, Mar 25, 2010.

  1. husajn11

    husajn11 Guest

    Shes Out Of My League TS XViD-IMAGiNE
    [​IMG]


    .NFO:

    Code:
    Ripper ...........: IMAGiNE                                        IMDB Rating.......:6.5/10                             
    Video Codec.......: XVID                                         Release Date......:20/03/10
    Audio Codec.......:MP3                                           Theatre Date......:12/03/10
    Audio Bitrate.....:128                                              Runtime.......:1h 40mn
    Subtitles.........:NIL                                                 Language..........:ENGLISH
    Resolution...... 704 x 288                                      IMDb URL..........:http://www.imdb.com/title/tt0815236/
    
    
    DETAILS:
    
    Video
    ID                               : 0
    Format                           : MPEG-4 Visual
    Format profile                   : Advanced Simple@L5
    Format settings, BVOP            : Yes
    Format settings, QPel            : No
    Format settings, GMC             : No warppoints
    Format settings, Matrix          : Default (MPEG)
    Muxing mode                      : Packed bitstream
    Codec ID                         : XVID
    Codec ID/Hint                    : XviD
    Duration                         : 1h 40mn
    Bit rate                         : 1 824 Kbps
    Width                            : 704 pixels
    Height                           : 288 pixels
    Display aspect ratio             : 2.444
    Frame rate                       : 23.976 fps
    Resolution                       : 24 bits
    Colorimetry                      : 4:2:0
    Scan type                        : Progressive
    Bits/(Pixel*Frame)               : 0.375
    Stream size                      : 1.28 GiB (93%)
    Writing library                  : XviD 1.2.1 (UTC 2008-12-04)
    
    Audio
    ID                               : 1
    Format                           : MPEG Audio
    Format version                   : Version 1
    Format profile                   : Layer 3
    Codec ID                         : 55
    Codec ID/Hint                    : MP3
    Duration                         : 1h 40mn
    Bit rate mode                    : Constant
    Bit rate                         : 128 Kbps
    Channel(s)                       : 2 channels
    Sampling rate                    : 48.0 KHz
    Resolution                       : 16 bits
    Stream size                      : 92.1 MiB (7%)
    Alignment                        : Split accross interleaves
    Interleave, duration             : 42 ms (1.00 video frame)
    Interleave, preload duration     : 500 ms 

    Screens:

    [​IMG]
    [​IMG]
    [​IMG]







    DOWNLOAD LINK'S - 200MB PART'S:
    Code:
    
    
    http://rapidshare.com/files/370695511/Shes.Out.of.My.League.2010.TS.XViD-IMAGiNE.part1.rar
    http://rapidshare.com/files/370695368/Shes.Out.of.My.League.2010.TS.XViD-IMAGiNE.part2.rar
    http://rapidshare.com/files/370695831/Shes.Out.of.My.League.2010.TS.XViD-IMAGiNE.part3.rar
    http://rapidshare.com/files/370695592/Shes.Out.of.My.League.2010.TS.XViD-IMAGiNE.part4.rar
    http://rapidshare.com/files/370702101/Shes.Out.of.My.League.2010.TS.XViD-IMAGiNE.part5.rar
    http://rapidshare.com/files/370697026/Shes.Out.of.My.League.2010.TS.XViD-IMAGiNE.part6.rar
    http://rapidshare.com/files/370695740/Shes.Out.of.My.League.2010.TS.XViD-IMAGiNE.part7.rar
    http://rapidshare.com/files/370695076/Shes.Out.of.My.League.2010.TS.XViD-IMAGiNE.part8.rar
    
    
    If you download this movie using the above links, please take a few seconds to reply a "thanks".
    



    [​IMG]
     
  2. tattooed187

    tattooed187 Guest

    thanx alot
     
  3. tntintl1

    tntintl1 Guest

    thanksss man
     
  4. wmauctions

    wmauctions New Member

    Joined:
    Dec 17, 2012
    Messages:
    0
    Likes Received:
    1
    Trophy Points:
    0
    Thanks--:bye:
     
  5. mark1234

    mark1234 Guest

    Thx Man
     
  6. husajn11

    husajn11 Guest

    fresh links added
     
  7. foq982ray

    foq982ray Guest

    thank you
     
  8. techwalker

    techwalker Guest

    The movie was hilarious,
    "From the bottom of my heart" : Thank you. :)
    Thanks for sharing.
     
  9. husajn11

    husajn11 Guest

    fresh links added

    enjoy!
     
  10. Yder2dedrma

    Yder2dedrma Guest

    Thank you!!! :yes: :pleasantry:
     
  11. THANKS from bonitofirebird
     
  12. DolceS

    DolceS Guest

    Thanks!
     
  13. Trellis

    Trellis Guest

    Thank you m8!:heyo:
     
  14. mrbill

    mrbill Guest

    thank you from mrbill
     
  15. djsequel

    djsequel Guest

    links dead
     
  16. husajn11

    husajn11 Guest

    fresh links added
     
  17. free_x_man

    free_x_man New Member

    Joined:
    Oct 5, 2012
    Messages:
    0
    Likes Received:
    0
    Trophy Points:
    0
  18. djsequel

    djsequel Guest

    Links dead
     
  19. husajn11

    husajn11 Guest

    fresh links added
     

Share This Page