Sket 2011 DVDRiP AC3 XViD v2 - INSPiRAL

Discussion in '2011 Movies' started by RMTeam, Mar 7, 2012.

  1. RMTeam

    RMTeam Active Member

    Joined:
    Feb 18, 2012
    Messages:
    4,485
    Likes Received:
    2
    Trophy Points:
    38
    Sket 2011 DVDRiP AC3 XViD v2 - INSPiRAL

    [​IMG]

    Sket (2011)
    Genre: Crime
    Directed By: Nirpal Bhogal
    Cast: Ashley Walters, Lily Loveless, Riann Steele
    Storyline: When a young woman is cruelly and indiscriminately attacked by a notorious gang led by the violent Trey...


    Code:
        IMDB Rate: 7.7
        IMDB: http://www.imdb.com/title/tt1658820/
    SOURCES:

    VIDEO - Legend THANKS
    AUDIO - Legend THANKS
    SUBS - None Add

    STATS:

    Video
    ID : 0
    Format : MPEG-4 Visual
    Format profile : Advanced Simple@L5
    Format settings, BVOP : 2
    Format settings, QPel : No
    Format settings, GMC : No warppoints
    Format settings, Matrix : Default (MPEG)
    Muxing mode : Packed bitstream
    Codec ID : XVID
    Codec ID/Hint : XviD
    Duration : 1h 19mn
    Bit rate : 905 Kbps
    Width : 720 pixels
    Height : 304 pixels
    Display aspect ratio : 2.35:1
    Frame rate : 25.000 fps
    Color space : YUV
    Chroma subsampling : 4:2:0
    Bit depth : 8 bits
    Scan type : Progressive
    Compression mode : Lossy
    Bits/(Pixel*Frame) : 0.165
    Stream size : 517 MiB (66%)
    Writing library : XviD 64

    Audio
    ID : 1
    Format : AC-3
    Format/Info : Audio Coding 3
    Mode extension : CM (complete main)
    Codec ID : 2000
    Duration : 1h 19mn
    Bit rate mode : Constant
    Bit rate : 448 Kbps
    Channel(s) : 6 channels
    Channel positions : Front: L C R, Side: L R, LFE
    Sampling rate : 48.0 KHz
    Bit depth : 16 bits
    Compression mode : Lossy
    Stream size : 256 MiB (33%)
    Alignment : Aligned on interleaves
    Interleave, duration : 40 ms (1.00 video frame)
    Interleave, preload duration : 512 ms



    DOWNLOAD
    Code:
    http://www.rarefile.net/hvha1hdov5wy/s.2011.d.a3.x.v2.i.u23476.RMTeam.rar
    [​IMG]

    [​IMG]
     

Share This Page