Sket 2011 DVDRIP x264 AC3 HQ 5 1 - HOPE Single 1 Link Full

Discussion in '2011 Movies' started by RMTeam, Mar 4, 2012.

  1. RMTeam

    RMTeam Active Member

    Joined:
    Feb 18, 2012
    Messages:
    4,485
    Likes Received:
    2
    Trophy Points:
    38
    Sket 2011 DVDRIP x264 AC3 HQ 5 1 - HOPE

    [​IMG]

    Sket (2011)
    Genre: Crime
    Directed By: Nirpal Bhogal
    Cast: Ashley Walters, Lily Loveless, Riann Steele
    Storyline: When a young woman is cruelly and indiscriminately attacked by a notorious gang led by the violent Trey...

    Code:
        IMDB Rate: 7.7
        IMDB: http://www.imdb.com/title/tt1658820/
    Information:
    Format : Matroska
    Format version : Version 2
    File size : 955 MiB
    Duration : 1h 19mn
    Overall bit rate : 1 671 Kbps
    Encoded date : UTC 2012-03-03 18:00:08
    Writing application : mkvmerge v5.3.0 ('I could have danced') built on Feb 9 2012 10:38:07
    Writing library : libebml v1.2.3 + libmatroska v1.3.0

    Video
    ID : 1
    Format : AVC
    Format/Info : Advanced Video Codec
    Format profile : High@L5.1
    Format settings, CABAC : Yes
    Format settings, ReFrames : 6 frames
    Codec ID : V_MPEG4/ISO/AVC
    Duration : 1h 19mn
    Bit rate : 1 221 Kbps
    Width : 720 pixels
    Height : 304 pixels
    Display aspect ratio : 2.35:1
    Frame rate : 25.000 fps
    Color space : YUV
    Chroma subsampling : 4:2:0
    Bit depth : 8 bits
    Scan type : Progressive
    Bits/(Pixel*Frame) : 0.223
    Stream size : 680 MiB (71%)
    Writing library : x264 core 120 r2164 da19765

    Audio
    ID : 2
    Format : AC-3
    Format/Info : Audio Coding 3
    Mode extension : CM (complete main)
    Codec ID : A_AC3
    Duration : 1h 19mn
    Bit rate mode : Constant
    Bit rate : 448 Kbps
    Channel(s) : 6 channels
    Channel positions : Front: L C R, Side: L R, LFE
    Sampling rate : 48.0 KHz
    Bit depth : 16 bits
    Compression mode : Lossy
    Stream size : 256 MiB (27%)



    DOWNLOAD
    Code:
    http://www.rarefile.net/inpbkyky5fp8/s.2011.d.x264.a3.h.5.1.h.u23406.RMTeam.rar

    [​IMG]

    [​IMG]

    [​IMG]
     

Share This Page