Sket 2011 DvDRip XviD Ac3 Feel-Free

Discussion in '2011 Movies' started by RMTeam, Mar 6, 2012.

  1. RMTeam

    RMTeam Active Member

    Joined:
    Feb 18, 2012
    Messages:
    4,485
    Likes Received:
    2
    Trophy Points:
    38
    Sket 2011 DvDRip XviD Ac3 Feel-Free

    [​IMG]

    Sket (2011)
    Genre: Crime
    Directed By: Nirpal Bhogal
    Cast: Ashley Walters, Lily Loveless, Riann Steele
    Storyline: When a young woman is cruelly and indiscriminately attacked by a notorious gang led by the violent Trey...


    Code:
        IMDB Rate: 7.7
        IMDB: http://www.imdb.com/title/tt1658820/
    ormat : AVI
    Format/Info : Audio Video Interleave
    File size : 946 MiB
    Duration : 1h 19mn
    Overall bit rate : 1 654 Kbps

    Video
    ID : 0
    Format : MPEG-4 Visual
    Format profile : Advanced Simple@L5
    Format settings, BVOP : 1
    Format settings, QPel : No
    Format settings, GMC : No warppoints
    Format settings, Matrix : Default (H.263)
    Codec ID : XVID
    Codec ID/Hint : XviD
    Duration : 1h 19mn
    Bit rate : 1 196 Kbps
    Width : 640 pixels
    Height : 272 pixels
    Display aspect ratio : 2.35:1
    Frame rate : 25.000 fps
    Color space : YUV
    Chroma subsampling : 4:2:0
    Bit depth : 8 bits
    Scan type : Progressive
    Compression mode : Lossy
    Bits/(Pixel*Frame) : 0.275
    Stream size : 684 MiB (72%)
    Writing library : XviD 1.2.1 (UTC 2008-12-04)

    Audio
    ID : 1
    Format : AC-3
    Format/Info : Audio Coding 3
    Mode extension : CM (complete main)
    Codec ID : 2000
    Duration : 1h 19mn
    Bit rate mode : Constant
    Bit rate : 448 Kbps
    Channel(s) : 6 channels
    Channel positions : Front: L C R, Side: L R, LFE
    Sampling rate : 48.0 KHz
    Bit depth : 16 bits
    Compression mode : Lossy
    Stream size : 256 MiB (27%)
    Alignment : Aligned on interleaves
    Interleave, duration : 40 ms (1.00 video frame)
    Interleave, preload duration : 512 ms



    DOWNLOAD
    Code:
    http://www.rarefile.net/87tcvq9l6spm/s.2011.dx.a3.ff.u23413.RMTeam.rar
    [​IMG]

    [​IMG]

    [​IMG]
     

Share This Page