Sket 2011 DVDRIP XVID AC3 - Xtreme Encode Single 1 Link Full

Discussion in '2011 Movies' started by RMTeam, Mar 4, 2012.

  1. RMTeam

    RMTeam Active Member

    Joined:
    Feb 18, 2012
    Messages:
    4,485
    Likes Received:
    2
    Trophy Points:
    38
    Sket 2011 DVDRIP XVID AC3 - Xtreme Encode

    [​IMG]

    Sket (2011)
    Genre: Crime
    Directed By: Nirpal Bhogal
    Cast: Ashley Walters, Lily Loveless, Riann Steele
    Storyline: When a young woman is cruelly and indiscriminately attacked by a notorious gang led by the violent Trey...

    Code:
        IMDB Rate: 7.7
        IMDB: http://www.imdb.com/title/tt1658820/

    General
    Complete name : Sket 2011 DVDRIP XVID AC3 - Xtreme Encode.avi
    Format : AVI
    Format/Info : Audio Video Interleave
    File size : 1.38 GiB
    Duration : 1h 19mn
    Overall bit rate : 2 476 Kbps


    Video
    ID : 0
    Format : MPEG-4 Visual
    Format profile : Advanced Simple@L5
    Format settings, BVOP : 1
    Format settings, QPel : No
    Format settings, GMC : No warppoints
    Format settings, Matrix : Default (H.263)
    Codec ID : XVID
    Codec ID/Hint : XviD
    Duration : 1h 19mn
    Bit rate : 2 020 Kbps
    Width : 720 pixels
    Height : 304 pixels
    Display aspect ratio : 2.35:1
    Frame rate : 25.000 fps
    Color space : YUV
    Chroma subsampling : 4:2:0
    Bit depth : 8 bits
    Scan type : Progressive
    Compression mode : Lossy
    Bits/(Pixel*Frame) : 0.369
    Stream size : 1.13 GiB (82%)


    Audio
    ID : 1
    Format : AC-3
    Format/Info : Audio Coding 3
    Mode extension : CM (complete main)
    Codec ID : 2000
    Duration : 1h 19mn
    Bit rate mode : Constant
    Bit rate : 448 Kbps
    Channel(s) : 6 channels
    Channel positions : Front: L C R, Side: L R, LFE
    Sampling rate : 48.0 KHz
    Bit depth : 16 bits
    Compression mode : Lossy
    Stream size : 256 MiB (18%)
    Alignment : Aligned on interleaves
    Interleave, duration : 64 ms (1.60 video frames)
    Interleave, preload duration : 192 ms




    DOWNLOAD
    Code:
    http://www.rarefile.net/wepgqf7ev4t6/s.2011.d.x.a3.x.e.u23422.RMTeam.part1.rar
    http://www.rarefile.net/bzh21yzbmwr4/s.2011.d.x.a3.x.e.u23422.RMTeam.part2.rar
    http://www.rarefile.net/wyyq36x16e0s/s.2011.d.x.a3.x.e.u23422.RMTeam.part3.rar
    [​IMG]

    [​IMG]

    [​IMG]
     

Share This Page