Slave Girls From Beyond Infinity 1987 DVDRip XviD-NoGrp

Discussion in 'Archive' started by urmanon, Jan 20, 2009.

  1. urmanon

    urmanon Guest

    Slave Girls From Beyond Infinity 1987 DVDRip XviD-NoGrp
    [​IMG][​IMG]
    [​IMG]


    Code:
    General
    Complete name                    : Slave.Girls.From.Beyond.Infinity.1987.DVDRip.XviD-NoGrp.avi
    Format                           : AVI
    Format/Info                      : Audio Video Interleave
    File size                        : 697 MiB
    Duration                         : 1h 14mn
    Overall bit rate                 : 1312 Kbps
    Writing application              : FairUse Wizard - http://fairusewizard.com
    Writing library                  : The best and REALLY easy backup tool
    Video:
    Format                           : MPEG-4 Visual
    Format profile                   : Streaming Video@L1
    Format settings, BVOP            : Yes
    Format settings, QPel            : No
    Format settings, GMC             : No warppoints
    Format settings, Matrix          : Default
    Muxing mode                      : Packet Bitstream
    Codec ID                         : XVID
    Codec ID/Hint                    : XviD
    Duration                         : 1h 14mn
    Bit rate                         : 1174 Kbps
    Width                            : 560 pixels
    Height                           : 400 pixels
    Display aspect ratio             : 1.400
    Frame rate                       : 23.976 fps
    Resolution                       : 8 bits
    Colorimetry                      : 4:2:0
    Scan type                        : Progressive
    Bits/(Pixel*Frame)               : 0.219
    Stream size                      : 624 MiB (90%)
    Writing library                  : XviD 1.2.0.dev47 (UTC 2006-11-01)
    Audio:
    Format                           : MPEG Audio
    Format version                   : Version 1
    Format profile                   : Layer 3
    Codec ID                         : 55
    Codec ID/Hint                    : MP3
    Duration                         : 1h 14mn
    Bit rate mode                    : Constant
    Bit rate                         : 128 Kbps
    Minimum bit rate                 : 128 Kbps
    Channel(s)                       : 2 channels
    Sampling rate                    : 48.0 KHz
    Resolution                       : 16 bits
    Stream size                      : 68.0 MiB (10%)
    Alignment                        : Aligned on interleaves
    Interleave, duration             : 42 ms (1.00 video frame)
    Interleave, preload duration     : 504 ms
    Writing library                  : LAME3.97b
    Encoding settings                : CBR
    ***************************************************************************************************************
    IMDB: http://www.imdb.com/title/tt0093991/
    IMDB Rating: 4.0/10   323 votes
    Director: Ken Dixon
    Writers: Richard Connell, Ken Dixon
    Genre: Action | Adventure | Comedy | Horror | Sci-Fi | Thriller
    Cast: 
    Elizabeth Kaitan	 ... 	Daria (as Elizabeth Cayton)
    Cindy Beal	         ... 	Tisa
    Don Scribner	         ... 	Zed
    Brinke Stevens	         ... 	Shala
    Carl Horner	         ... 	Rik
    Kirk Graves	         ... 	Vak
    Randolph Roehbling	 ... 	Krel
    Bud Graves	         ... 	Phantazoid Warrior
    Jeffery Blanchard	 ... 	Phantazoid Warrior
    Mike Cooper	         ... 	Guard
    Gregory Lee Cooper	 ... 	Guard (as Greg Cooper)
    Sheila White	         ... 	Girl
    Fred Tate	         ... 	Mutant
    Jacques Schardo	         ... 	Zombie
    PLOT:
    Lovely and resourceful Daria and Tisa escape a space gulag only to crash land on a nearby world where a guy in tight pants named Zed is playing The Most Dangerous Game. Zed turns the girls and another guest loose in his jungle preserve to serve as the prey in a mad hunt. Armed only with knives and their wits, the girls must battle their way accross the jungle to a hidden arms cache before Zed catches and kills them.
    
    [​IMG]
    [​IMG]
    Code:
    http://rapidshare.com/files/186460327/SGFBI.part1.rar
    http://rapidshare.com/files/186570524/SGFBI.part2.rar
    http://rapidshare.com/files/186593255/SGFBI.part3.rar
    http://rapidshare.com/files/186606186/SGFBI.part4.rar
    http://rapidshare.com/files/186618720/SGFBI.part5.rar
    http://rapidshare.com/files/186631278/SGFBI.part6.rar
    http://rapidshare.com/files/186644071/SGFBI.part7.rar
    http://rapidshare.com/files/186646638/SGFBI.part8.rar
    
    [​IMG]
    Code:
    Recovery records 10% added
    [​IMG]
    Code:
    ...TO KEEP THIS POST ALIVE :-)
    Code:
    Have a look at my other posts, too...newbies added recently :)
     
  2. HotRodder

    HotRodder Guest

    thanks
     
  3. urmanon

    urmanon Guest

    Always :crigon_04:
     
  4. Definetely a gem :yahoo:

    THX as always.

    :triniti:
     
  5. urmanon

    urmanon Guest



    Always :crigon_04: here laurapalmer :m13:
     
  6. exyss

    exyss Guest

    thanks for the share!
     
  7. seyhan313

    seyhan313 Guest

    thanks
     
  8. urmanon

    urmanon Guest

    Anytime, Always :crigon_04:
     
  9. goxy86

    goxy86 New Member

    Joined:
    Jan 27, 2013
    Messages:
    0
    Likes Received:
    0
    Trophy Points:
    0
    Thanks a lot.
     
  10. urmanon

    urmanon Guest

    Always :crigon_04: here :m13:
     
  11. Nxdvxxsh

    Nxdvxxsh Guest

    thanks for a tacky classic​
     
  12. Larry95336

    Larry95336 Guest

    Thanks for the share!:heyo::heyo::heyo:
     
  13. lord05

    lord05 Guest

    thank you
     
  14. QQSslow

    QQSslow New Member

    Joined:
    Mar 6, 2012
    Messages:
    0
    Likes Received:
    0
    Trophy Points:
    0
    Thank you very much...
     
  15. urmanon

    urmanon Guest

    Every1 Is Always Welcome here ...
     
  16. potain

    potain Guest

    thanks man nice post :heyo:
     
  17. urmanon

    urmanon Guest

    always welcome
     

Share This Page