Stolen 2012 BRRIP XviD AC3-BHRG

Discussion in '2012 Movies' started by RMTeam, Oct 11, 2012.

  1. RMTeam

    RMTeam Active Member

    Joined:
    Feb 18, 2012
    Messages:
    4,485
    Likes Received:
    2
    Trophy Points:
    38
    Stolen 2012 BRRIP XviD AC3-BHRG

    [​IMG]


    Stolen (2012)
    Genre: Action | Drama | Thriller
    Directed By: Simon West
    Cast: Nicolas Cage, Josh Lucas, Danny Huston
    Country: USA
    Original Language: English
    Storyline: A former thief frantically searches for his missing daughter, who has been kidnapped and locked in the trunk of a taxi.


    [​IMG]

    File size : 1.48 GiB
    Duration : 1h 35mn
    Overall bit rate : 2 205 Kbps

    Video
    ID : 0
    Format : MPEG-4 Visual
    Format profile : Advanced Simple@L5
    Format settings, BVOP : 2
    Format settings, QPel : No
    Format settings, GMC : No warppoints
    Format settings, Matrix : Default (H.263)
    Codec ID : XVID
    Codec ID/Hint : XviD
    Duration : 1h 35mn
    Bit rate : 1 750 Kbps
    Width : 720 pixels
    Height : 400 pixels
    Display aspect ratio : 16:9
    Frame rate : 24.000 fps
    Color space : YUV
    Chroma subsampling : 4:2:0
    Bit depth : 8 bits
    Scan type : Progressive
    Compression mode : Lossy
    Bits/(Pixel*Frame) : 0.253
    Stream size : 1.17 GiB (79%)
    Writing library : XviD 1.2.1 (UTC 2008-12-04)

    Audio
    ID : 1
    Format : AC-3
    Format/Info : Audio Coding 3
    Mode extension : CM (complete main)
    Format settings, Endianness : Big
    Codec ID : 2000
    Duration : 1h 35mn
    Bit rate mode : Constant
    Bit rate : 448 Kbps
    Channel(s) : 6 channels
    Channel positions : Front: L C R, Side: L R, LFE
    Sampling rate : 48.0 KHz
    Bit depth : 16 bits
    Compression mode : Lossy
    Stream size : 307 MiB (20%)
    Alignment : Aligned on interleaves
    Interleave, duration : 64 ms (1.54 video frames)
    Interleave, preload duration : 192 ms
    Title : Stolen.2012.BluRay.720p.DTS.x264.RoSubbed-CHD - [1] English



    [​IMG]

    Code:
    http://extabit.com/file/28wbpecy0lw4t/s.2012.b.x.a3-b.u63444.m.part1.rar
    http://extabit.com/file/28wbpecy0m5hp/s.2012.b.x.a3-b.u63444.m.part2.rar




    .
     

Share This Page