Taken 2 2012 TS XviD-FRiSSON

Discussion in '2012 Movies' started by RMTeam, Oct 13, 2012.

  1. RMTeam

    RMTeam Active Member

    Joined:
    Feb 18, 2012
    Messages:
    4,485
    Likes Received:
    2
    Trophy Points:
    38
    Taken 2 2012 TS XviD-FRiSSON

    [​IMG]


    Taken 2 (2012)
    Genre: Action | Crime | Drama
    Directed By: Olivier Megaton
    Cast: Liam Neeson, Maggie Grace, Famke Janssen
    MPAA Rate: PG-13
    Country: France
    Original Language: English
    Storyline: In Istanbul, retired CIA operative Bryan Mills and his wife are taken hostage by the father of a kidnapper Mills killed while rescuing his daughter.

    [​IMG]

    [​IMG]


    Format : AVI
    Format/Info : Audio Video Interleave
    File size : 1.03 GiB
    Duration : 1h 26mn
    Overall bit rate : 1 714 Kbps

    Video
    ID : 0
    Format : MPEG-4 Visual
    Format profile : Advanced Simple@L5
    Format settings, BVOP : 2
    Format settings, QPel : No
    Format settings, GMC : No warppoints
    Format settings, Matrix : Default (H.263)
    Muxing mode : Packed bitstream
    Codec ID : XVID
    Codec ID/Hint : XviD
    Duration : 1h 26mn
    Bit rate : 1 576 Kbps
    Width : 672 pixels
    Height : 288 pixels
    Display aspect ratio : 2.35:1
    Frame rate : 25.000 fps
    Color space : YUV
    Chroma subsampling : 4:2:0
    Bit depth : 8 bits
    Scan type : Progressive
    Compression mode : Lossy
    Bits/(Pixel*Frame) : 0.326
    Stream size : 970 MiB (92%)
    Writing library : XviD 64

    Audio
    ID : 1
    Format : MPEG Audio
    Format version : Version 1
    Format profile : Layer 3
    Codec ID : 55
    Codec ID/Hint : MP3
    Duration : 1h 26mn
    Bit rate mode : Constant
    Bit rate : 128 Kbps
    Channel(s) : 2 channels
    Sampling rate : 44.1 KHz
    Compression mode : Lossy
    Stream size : 78.7 MiB (7%)
    Alignment : Aligned on interleaves
    Interleave, duration : 40 ms (1.00 video frame)


    DOWNLOAD
    Code:
    http://extabit.com/file/28wbpbq3xqv8d/t.2.2012.t.xf.u63511.m.part1.rar
    http://extabit.com/file/28wbpbrysez7h/t.2.2012.t.xf.u63511.m.part2.rar
    








    .
     

Share This Page